×

¿Problemas para descargar con Mozilla, EDGE? Deshabilita la opción "Abrir vinculos en una pestaña nueva" tal como lo muestra ésta imagen.

Bill & Ted Face the Music (2020) 4K REMUX HDR Latino – CMHDD

231 vistas

Información de Bill & Ted Face the Music (2020) 4K REMUX HDR Latino – CMHDD

Datos de la película

  • Calidad: 4K HDR
  • Audio: Español Latino AC3 5.1 BLURAY - Ingles DTS 5.1 BLURAY
  • Subtitulos: Español Latino PGS
  • Resolución: 3840x2160p
  • Formato: MKV
  • Codec: H.264
  • Encoder: Dracarys
  • Mediainfo: Clic para Mostrar Datos Ver
  • Format                      : Matroska
    Format version              : Version 4
    File size                   : 44.8 GiB
    Duration                    : 1 h 31 min
    Overall bit rate mode       : Variable
    Overall bit rate            : 69.7 Mb/s
    Movie name                  : Bill & Ted Face the Music (2020) 4K REMUX HDR Latino - CMHDD
    Encoded date                : UTC 2021-02-05 02:40:58
    Writing application         : mkvmerge v51.0.0 ('I Wish') 64-bit
    Writing library             : libebml v1.4.0 + libmatroska v1.6.2

    Video
    ID                          : 1
    ID in the original source m : 4113 (0x1011)
    Format                      : HEVC
    Format/Info                 : High Efficiency Video Coding
    Format profile              : Main 10@L5.1@High
    Codec ID                    : V_MPEGH/ISO/HEVC
    Duration                    : 1 h 31 min
    Bit rate                    : 65.0 Mb/s
    Width                       : 3 840 pixels
    Height                      : 2 160 pixels
    Display aspect ratio        : 16:9
    Frame rate mode             : Constant
    Frame rate                  : 23.976 (24000/1001) FPS
    Color space                 : YUV
    Chroma subsampling          : 4:2:0
    Bit depth                   : 10 bits
    Bits/(Pixel*Frame)          : 0.327
    Stream size                 : 41.7 GiB (93%)
    Language                    : English
    Default                     : No
    Forced                      : No
    Color range                 : Limited
    Color primaries             : BT.709
    Transfer characteristics    : BT.709
    Matrix coefficients         : BT.709
    Original source medium      : Blu-ray

    Audio #1
    ID                          : 2
    Format                      : AC-3
    Format/Info                 : Audio Coding 3
    Commercial name             : Dolby Digital
    Codec ID                    : A_AC3
    Duration                    : 1 h 31 min
    Bit rate mode               : Constant
    Bit rate                    : 640 kb/s
    Channel(s)                  : 6 channels
    Channel layout              : L R C LFE Ls Rs
    Sampling rate               : 48.0 kHz
    Frame rate                  : 31.250 FPS (1536 SPF)
    Compression mode            : Lossy
    Delay relative to video     : 4 ms
    Stream size                 : 421 MiB (1%)
    Language                    : Spanish
    Service kind                : Complete Main
    Default                     : Yes
    Forced                      : No

    Audio #2
    ID                          : 3
    ID in the original source m : 4352 (0x1100)
    Format                      : DTS XLL
    Format/Info                 : Digital Theater Systems
    Commercial name             : DTS-HD Master Audio
    Codec ID                    : A_DTS
    Duration                    : 1 h 31 min
    Bit rate mode               : Variable
    Bit rate                    : 3 499 kb/s
    Channel(s)                  : 6 channels
    Channel layout              : C L R Ls Rs LFE
    Sampling rate               : 48.0 kHz
    Frame rate                  : 93.750 FPS (512 SPF)
    Bit depth                   : 24 bits
    Compression mode            : Lossless
    Stream size                 : 2.24 GiB (5%)
    Language                    : English
    Default                     : No
    Forced                      : No
    Original source medium      : Blu-ray

    Audio #3
    ID                          : 4
    Format                      : AC-3
    Format/Info                 : Audio Coding 3
    Commercial name             : Dolby Digital
    Codec ID                    : A_AC3
    Duration                    : 1 h 31 min
    Bit rate mode               : Constant
    Bit rate                    : 640 kb/s
    Channel(s)                  : 6 channels
    Channel layout              : L R C LFE Ls Rs
    Sampling rate               : 48.0 kHz
    Frame rate                  : 31.250 FPS (1536 SPF)
    Compression mode            : Lossy
    Stream size                 : 420 MiB (1%)
    Language                    : English
    Service kind                : Complete Main
    Default                     : No
    Forced                      : No

    Text #1
    ID                          : 5
    Format                      : PGS
    Muxing mode                 : zlib
    Codec ID                    : S_HDMV/PGS
    Codec ID/Info               : Picture based subtitle format used on BDs/HD-DVDs
    Duration                    : 1 h 31 min
    Bit rate                    : 37.4 kb/s
    Count of elements           : 2888
    Stream size                 : 24.4 MiB (0%)
    Language                    : Spanish
    Default                     : No
    Forced                      : No

    Text #2
    ID                          : 6
    Format                      : UTF-8
    Codec ID                    : S_TEXT/UTF8
    Codec ID/Info               : UTF-8 Plain Text
    Duration                    : 38 min 7 s
    Bit rate                    : 1 b/s
    Count of elements           : 13
    Stream size                 : 391 Bytes (0%)
    Language                    : Spanish
    Default                     : Yes
    Forced                      : No

    Text #3
    ID                          : 7
    Format                      : UTF-8
    Codec ID                    : S_TEXT/UTF8
    Codec ID/Info               : UTF-8 Plain Text
    Duration                    : 1 h 31 min
    Bit rate                    : 70 b/s
    Count of elements           : 1575
    Stream size                 : 46.8 KiB (0%)
    Language                    : Spanish
    Default                     : No
    Forced                      : No

    Menu
    00:00:00.000                : en:Chapter 01
    00:09:51.507                : en:Chapter 02
    00:19:57.696                : en:Chapter 03
    00:30:03.092                : en:Chapter 04
    00:40:51.115                : en:Chapter 05
    00:50:40.328                : en:Chapter 06
    01:00:05.059                : en:Chapter 07
    01:09:59.612                : en:Chapter 08
    01:20:50.554                : en:Chapter 09

  • Peso: 44.8 GiB

Sinopsis

A dos aspirantes a rockeros de San Dimas, California, se les dijo una vez que salvarían el universo durante una aventura de viaje en el tiempo, pero se encuentran como padres de mediana edad que aún intentan poner en marcha una canción exitosa y cumplir su destino. Sin suerte e inspiración, Bill y Ted emprendieron otra aventura de viaje en el tiempo para buscar la canción que establecerá su mundo correcto y traerá armonía al universo tal como lo conocemos.

Ficha técnica

Video trailer de la película

Enlaces de descarga

Rip de Bluray

Descargar Bill & Ted Face the Music (2020) 4K REMUX HDR Latino – CMHDD


Aportes de DPeliculasHDmega la pass es:dpeliculashdmega.org Aportes de CinemaniaHD la pass es:cinemaniahdd.com
Guardado en : Aventura , Ciencia ficción , Comedia

Películas relacionadas

descargar Bill & Ted Face the Music (2020) 4K REMUX HDR Latino – CMHDD 4K HDR 1080p gratis, Bill & Ted Face the Music (2020) 4K REMUX HDR Latino – CMHDD 4K HDR mega 1 link, Bill & Ted Face the Music (2020) 4K REMUX HDR Latino – CMHDD 4K HDR pelicula completa, descargar Bill & Ted Face the Music (2020) 4K REMUX HDR Latino – CMHDD 4K HDR gratis en mega.

Bill & Ted Face the Music (2020) 4K REMUX HDR Latino – CMHDD pelicula full hd, Bill & Ted Face the Music (2020) 4K REMUX HDR Latino – CMHDD mega latino, Bill & Ted Face the Music (2020) 4K REMUX HDR Latino – CMHDD 4k latino, Bill & Ted Face the Music (2020) 4K REMUX HDR Latino – CMHDD pelicula completa, Bill & Ted Face the Music (2020) 4K REMUX HDR Latino – CMHDD descargar gratis, descargar Bill & Ted Face the Music (2020) 4K REMUX HDR Latino – CMHDD pelicula latino, Bill & Ted Face the Music (2020) 4K REMUX HDR Latino – CMHDD 1 link mega, Bill & Ted Face the Music (2020) 4K REMUX HDR Latino – CMHDD 1 link google drive, Bill & Ted Face the Music (2020) 4K REMUX HDR Latino – CMHDD hd 1080p latino.
Comentarios 0