×

¿Problemas para descargar con Mozilla, EDGE? Deshabilita la opción "Abrir vinculos en una pestaña nueva" tal como lo muestra ésta imagen.

El Más Grande (2018) WEB-DL 1080p Latino

351 vistas

Información de El Más Grande (2018) WEB-DL 1080p Latino

Datos de la película

  • Calidad: WEBDL
  • Audio: Español Latino AC3 2.0 Capturado - Ingles AC3 5.1 iTunes
  • Subtitulos: Español Latino SRT - Ingles SRT
  • Resolución: 1920x796p
  • Formato: MKV
  • Codec: H.264
  • Encoder: CinemaniaHD
  • Mediainfo: Clic para Mostrar Datos Ver
  • Bigger (2018) Web-DL 1080p Latino.mkv
    Format                      : Matroska
    Format version              : Version 4
    File size                   : 3.91 GiB
    Duration                    : 1 h 47 min
    Overall bit rate            : 5 223 kb/s
    Movie name                  : Bigger (2018) CinemaniaHDD.Net
    Encoded date                : UTC 2020-05-07 22:53:05
    Writing application         : mkvmerge v42.0.0 ('Overtime') 64-bit
    Writing library             : libebml v1.3.10 + libmatroska v1.5.2
    Attachments                 : CINEMANIAHD.png

    Video
    ID                          : 1
    Format                      : AVC
    Format/Info                 : Advanced Video Codec
    Format profile              : High@L4
    Format settings             : CABAC / 5 Ref Frames
    Format settings, CABAC      : Yes
    Format settings, ReFrames   : 5 frames
    Codec ID                    : V_MPEG4/ISO/AVC
    Duration                    : 1 h 47 min
    Bit rate                    : 4 581 kb/s
    Width                       : 1 920 pixels
    Height                      : 796 pixels
    Display aspect ratio        : 2.40:1
    Frame rate mode             : Constant
    Frame rate                  : 23.976 (23976/1000) FPS
    Color space                 : YUV
    Chroma subsampling          : 4:2:0
    Bit depth                   : 8 bits
    Scan type                   : Progressive
    Bits/(Pixel*Frame)          : 0.125
    Stream size                 : 3.43 GiB (88%)
    Title                       : Web HD1080p [CinemaniaHDD]
    Language                    : English
    Default                     : Yes
    Forced                      : No
    Color range                 : Limited
    Color primaries             : BT.709
    Transfer characteristics    : BT.709
    Matrix coefficients         : BT.709

    Audio #1
    ID                          : 2
    Format                      : AC-3
    Format/Info                 : Audio Coding 3
    Commercial name             : Dolby Digital
    Codec ID                    : A_AC3
    Duration                    : 1 h 47 min
    Bit rate mode               : Constant
    Bit rate                    : 256 kb/s
    Channel(s)                  : 2 channels
    Channel layout              : L R
    Sampling rate               : 48.0 kHz
    Frame rate                  : 31.250 FPS (1536 SPF)
    Bit depth                   : 16 bits
    Compression mode            : Lossy
    Delay relative to video     : -42 ms
    Stream size                 : 196 MiB (5%)
    Title                       : Español Latino [CinemaniaHDD]
    Language                    : Spanish
    Service kind                : Complete Main
    Default                     : Yes
    Forced                      : No

    Audio #2
    ID                          : 3
    Format                      : AC-3
    Format/Info                 : Audio Coding 3
    Commercial name             : Dolby Digital
    Codec ID                    : A_AC3
    Duration                    : 1 h 47 min
    Bit rate mode               : Constant
    Bit rate                    : 384 kb/s
    Channel(s)                  : 6 channels
    Channel layout              : L R C LFE Ls Rs
    Sampling rate               : 48.0 kHz
    Frame rate                  : 31.250 FPS (1536 SPF)
    Bit depth                   : 16 bits
    Compression mode            : Lossy
    Delay relative to video     : -42 ms
    Stream size                 : 295 MiB (7%)
    Title                       : Ingles [CinemaniaHDD]
    Language                    : English
    Service kind                : Complete Main
    Default                     : No
    Forced                      : No

    Text #1
    ID                          : 4
    Format                      : UTF-8
    Codec ID                    : S_TEXT/UTF8
    Codec ID/Info               : UTF-8 Plain Text
    Duration                    : 6 s 635 ms
    Bit rate                    : 12 b/s
    Count of elements           : 1
    Stream size                 : 10.0 Bytes (0%)
    Title                       : Forzados-SRT [CinemaniaHDD]
    Language                    : Spanish
    Default                     : Yes
    Forced                      : No

    Text #2
    ID                          : 5
    Format                      : UTF-8
    Codec ID                    : S_TEXT/UTF8
    Codec ID/Info               : UTF-8 Plain Text
    Duration                    : 1 h 40 min
    Bit rate                    : 78 b/s
    Count of elements           : 1759
    Stream size                 : 57.7 KiB (0%)
    Title                       : Español-SRT [CinemaniaHDD]
    Language                    : Spanish
    Default                     : No
    Forced                      : No

    Text #3
    ID                          : 6
    Format                      : UTF-8
    Codec ID                    : S_TEXT/UTF8
    Codec ID/Info               : UTF-8 Plain Text
    Duration                    : 1 h 41 min
    Bit rate                    : 72 b/s
    Count of elements           : 1740
    Stream size                 : 54.2 KiB (0%)
    Title                       : Ingles-SRT [CinemaniaHDD]
    Language                    : English
    Default                     : No
    Forced                      : No

    Menu
    00:00:00.000                : en:1
    00:10:30.880                : en:2
    00:20:17.049                : en:3
    00:29:43.073                : en:4
    00:41:20.311                : en:5
    00:52:55.339                : en:6
    01:08:08.752                : en:7
    01:19:19.839                : en:8
    01:25:50.521                : en:9
    01:43:07.891                : en:10

  • Peso: 3.91 GiB

Sinopsis

Descargar El Más Grande (2018) WEB-DL 1080p Latino. Bigger es la inspiradora historia de los padrinos del fitness, Joe y Ben Weider, tal y como lo conocemos en nuestros días. Luchando contra el antisemitismo y el racismo, así como contra la extrema pobreza, los hermanos vencen todos los obstáculos que se presentan ante ellos para construir un imperio e inspirar a nuevas generaciones.

Ficha técnica

  • Titulo original: Bigger
  • Fecha de lanzamiento: 13-10-2018 (United States of America)
  • Director: George Gallo
  • Género: Drama

Video trailer de la película

Enlaces de descarga

Rip de Bluray

Descargar El Más Grande (2018) WEB-DL 1080p Latino




Aportes de DPeliculasHDmega la pass es:dpeliculashdmega.org Aportes de CinemaniaHD la pass es:cinemaniahdd.com
Guardado en : Drama

Películas relacionadas

descargar El Más Grande (2018) WEB-DL 1080p Latino WEBDL 1080p gratis, El Más Grande (2018) WEB-DL 1080p Latino WEBDL mega 1 link, El Más Grande (2018) WEB-DL 1080p Latino WEBDL pelicula completa, descargar El Más Grande (2018) WEB-DL 1080p Latino WEBDL gratis en mega.

El Más Grande (2018) WEB-DL 1080p Latino pelicula full hd, El Más Grande (2018) WEB-DL 1080p Latino mega latino, El Más Grande (2018) WEB-DL 1080p Latino 4k latino, El Más Grande (2018) WEB-DL 1080p Latino pelicula completa, El Más Grande (2018) WEB-DL 1080p Latino descargar gratis, descargar El Más Grande (2018) WEB-DL 1080p Latino pelicula latino, El Más Grande (2018) WEB-DL 1080p Latino 1 link mega, El Más Grande (2018) WEB-DL 1080p Latino 1 link google drive, El Más Grande (2018) WEB-DL 1080p Latino hd 1080p latino.
Comentarios 0