Big Mouth (2020) Temporada 4 NF WEB-DL 1080p Latino

154 vistas
1 estrella2 estrellas3 estrellas4 estrellas5 estrellas (1 votos, promedio: 5,00 de 5)
Cargando...

Información de Big Mouth (2020) Temporada 4 NF WEB-DL 1080p Latino

Datos de la película

  • Calidad: WEBDL
  • Audio: Español Latino AC3 5.1 Netflix - Ingles AC3 5.1 Netflix
  • Subtitulos: Español Latino SRT- FORZADOS SRT
  • Resolución: 1920x1080
  • Formato: MKV
  • Codec: H.264
  • Encoder: cinemaniahdd
  • Mediainfo: Clic para Mostrar Datos Ver
  • Big Mouth T04E10 NF WEB-DL 1080p Latino [CNMNHDD].mkv
    Format                      : Matroska
    Format version              : Version 4
    File size                   : 1.28 GiB
    Duration                    : 28 min 42 s
    Overall bit rate mode       : Variable
    Overall bit rate            : 6 379 kb/s
    Movie name                  : Big Mouth T04E10 - CinemaniaHDD.Net
    Encoded date                : UTC 2020-12-04 23:02:32
    Writing application         : mkvmerge v51.0.0 ('I Wish') 64-bit
    Writing library             : libebml v1.4.0 + libmatroska v1.6.2

    Video
    ID                          : 1
    Format                      : AVC
    Format/Info                 : Advanced Video Codec
    Format profile              : Main@L4
    Format settings             : CABAC / 3 Ref Frames
    Format settings, CABAC      : Yes
    Format settings, Reference  : 3 frames
    Codec ID                    : V_MPEG4/ISO/AVC
    Duration                    : 28 min 42 s
    Bit rate mode               : Variable
    Bit rate                    : 5 603 kb/s
    Maximum bit rate            : 8 700 kb/s
    Width                       : 1 920 pixels
    Height                      : 1 080 pixels
    Display aspect ratio        : 16:9
    Frame rate mode             : Constant
    Frame rate                  : 23.976 (24000/1001) FPS
    Color space                 : YUV
    Chroma subsampling          : 4:2:0
    Bit depth                   : 8 bits
    Scan type                   : Progressive
    Bits/(Pixel*Frame)          : 0.113
    Stream size                 : 1.12 GiB (88%)
    Title                       : CinemaniaHDD
    Default                     : Yes
    Forced                      : No

    Audio #1
    ID                          : 2
    Format                      : AC-3
    Format/Info                 : Audio Coding 3
    Commercial name             : Dolby Digital
    Codec ID                    : A_AC3
    Duration                    : 28 min 42 s
    Bit rate mode               : Constant
    Bit rate                    : 384 kb/s
    Channel(s)                  : 6 channels
    Channel layout              : L R C LFE Ls Rs
    Sampling rate               : 48.0 kHz
    Frame rate                  : 31.250 FPS (1536 SPF)
    Compression mode            : Lossy
    Stream size                 : 78.8 MiB (6%)
    Title                       : Español latino [CinemaniaHDD]
    Language                    : Spanish
    Service kind                : Complete Main
    Default                     : Yes
    Forced                      : No

    Audio #2
    ID                          : 3
    Format                      : AC-3
    Format/Info                 : Audio Coding 3
    Commercial name             : Dolby Digital
    Codec ID                    : A_AC3
    Duration                    : 28 min 42 s
    Bit rate mode               : Constant
    Bit rate                    : 384 kb/s
    Channel(s)                  : 6 channels
    Channel layout              : L R C LFE Ls Rs
    Sampling rate               : 48.0 kHz
    Frame rate                  : 31.250 FPS (1536 SPF)
    Compression mode            : Lossy
    Stream size                 : 78.8 MiB (6%)
    Title                       : Inglés [CinemaniaHDD]
    Language                    : English
    Service kind                : Complete Main
    Default                     : No
    Forced                      : No

    Text #1
    ID                          : 4
    Format                      : UTF-8
    Codec ID                    : S_TEXT/UTF8
    Codec ID/Info               : UTF-8 Plain Text
    Duration                    : 27 min 22 s
    Bit rate                    : 6 b/s
    Count of elements           : 42
    Stream size                 : 1.40 KiB (0%)
    Title                       : Forzados [CinemaniaHDD]
    Language                    : Spanish
    Default                     : Yes
    Forced                      : Yes

    Text #2
    ID                          : 5
    Format                      : UTF-8
    Codec ID                    : S_TEXT/UTF8
    Codec ID/Info               : UTF-8 Plain Text
    Duration                    : 27 min 22 s
    Bit rate                    : 97 b/s
    Count of elements           : 594
    Stream size                 : 19.6 KiB (0%)
    Title                       : Español latino [CinemaniaHDD]
    Language                    : Spanish
    Default                     : No
    Forced                      : No

    Text #3
    ID                          : 6
    Format                      : UTF-8
    Codec ID                    : S_TEXT/UTF8
    Codec ID/Info               : UTF-8 Plain Text
    Duration                    : 27 min 26 s
    Bit rate                    : 113 b/s
    Count of elements           : 640
    Stream size                 : 22.9 KiB (0%)
    Title                       : Inglés [CinemaniaHDD]
    Language                    : English
    Default                     : No
    Forced                      : No

  • Peso: 1.28 GiB Aprox ---- 10 GiB in 10 Chapters.

Sinopsis

Los amigos adolescentes encuentran sus vidas alteradas por las maravillas y los horrores de la pubertad en esta comedia vanguardista de amigos de la vida real Nick Kroll y Andrew Goldberg.

Ficha técnica

Video trailer de la película

Enlaces de descarga

Rip de Bluray

Descargar Big Mouth (2020) Temporada 4 NF WEB-DL 1080p Latino




Aportes de DPeliculasHDmega la pass es:dpeliculashdmega.org Aportes de CinemaniaHD la pass es:cinemaniahdd.com
Guardado en : Animación , Comedia , Netflix , Series

Películas relacionadas

Big Mouth (2020) Temporada 4 NF WEB-DL 1080p Latino pelicula full hd, Big Mouth (2020) Temporada 4 NF WEB-DL 1080p Latino mega latino, Big Mouth (2020) Temporada 4 NF WEB-DL 1080p Latino 4k latino, Big Mouth (2020) Temporada 4 NF WEB-DL 1080p Latino pelicula completa, Big Mouth (2020) Temporada 4 NF WEB-DL 1080p Latino descargar gratis, descargar Big Mouth (2020) Temporada 4 NF WEB-DL 1080p Latino pelicula latino, Big Mouth (2020) Temporada 4 NF WEB-DL 1080p Latino 1 link mega, Big Mouth (2020) Temporada 4 NF WEB-DL 1080p Latino 1 link google drive, Big Mouth (2020) Temporada 4 NF WEB-DL 1080p Latino hd 1080p latino.
Comentarios 0