Big Mouth (2017) Temporada 1 NF 1080p Latino

253 vistas
1 estrella2 estrellas3 estrellas4 estrellas5 estrellas (Ninguna valoración todavía)
Cargando…

Información de Big Mouth (2017) Temporada 1 NF 1080p Latino

Datos de la película

  • Calidad: WEBDL
  • Audio: Español Latino AC3 5.1 Netflix - Ingles AC3 5.1 Netflix
  • Subtitulos: Español Latino SRT- FORZADOS SRT
  • Resolución: 1920x1080
  • Formato: MKV
  • Codec: H.264
  • Encoder: cinemaniahd
  • Mediainfo: Clic para Mostrar Datos Ver
  • Big Mouth S01E01 NF 1080p Latino.mkv
    Format                      : Matroska
    Format version              : Version 4
    File size                   : 310 MiB
    Duration                    : 26 min 5 s
    Overall bit rate mode       : Variable
    Overall bit rate            : 1 659 kb/s
    Movie name                  : Big Mouth S01E01
    Encoded date                : UTC 2019-02-12 17:40:34 / UTC 2018-04-19 08:03:35
    Writing application         : mkvmerge v11.0.0 ('Alive') 64bit
    Writing library             : libebml v1.3.4 + libmatroska v1.4.5 / Lavf58.0.0

    Video
    ID                          : 1
    Format                      : AVC
    Format/Info                 : Advanced Video Codec
    Format profile              : [email protected]
    Format settings             : CABAC / 4 Ref Frames
    Format settings, CABAC      : Yes
    Format settings, ReFrames   : 4 frames
    Codec ID                    : V_MPEG4/ISO/AVC
    Duration                    : 26 min 5 s
    Bit rate mode               : Variable
    Bit rate                    : 858 kb/s
    Maximum bit rate            : 20.0 Mb/s
    Width                       : 1 920 pixels
    Height                      : 1 080 pixels
    Display aspect ratio        : 16:9
    Frame rate mode             : Constant
    Frame rate                  : 23.976 (24000/1001) FPS
    Color space                 : YUV
    Chroma subsampling          : 4:2:0
    Bit depth                   : 8 bits
    Scan type                   : Progressive
    Bits/(Pixel*Frame)          : 0.017
    Stream size                 : 160 MiB (52%)
    Title                       : CinemaniaHDD
    Writing library             : x264 core 148 r2715 7e75228
    Encoding settings           : cabac=1 / ref=4 / deblock=1:0:0 / analyse=0x3:0x111 / me=umh / subme=10 / psy=1 / psy_rd=1.00:0.00 / mixed_ref=1 / me_range=120 / chroma_me=1 / trellis=2 / 8x8dct=1 / cqm=0 / deadzone=21,11 / fast_pskip=1 / chroma_qp_offset=-2 / threads=8 / lookahead_threads=2 / sliced_threads=0 / nr=0 / decimate=1 / interlaced=0 / bluray_compat=0 / stitchable=1 / constrained_intra=0 / bframes=16 / b_pyramid=2 / b_adapt=2 / b_bias=0 / direct=3 / weightb=1 / open_gop=0 / weightp=2 / keyint=240 / keyint_min=121 / scenecut=0 / intra_refresh=0 / rc_lookahead=240 / rc=crf / mbtree=1 / crf=24.0 / qcomp=0.50 / qpmin=6 / qpmax=51 / qpstep=4 / vbv_maxrate=20000 / vbv_bufsize=25000 / crf_max=0.0 / nal_hrd=vbr / filler=0 / ip_ratio=1.40 / aq=1:0.80
    Default                     : Yes
    Forced                      : No
    Statistics Tags Issue       : mkvmerge v11.0.0 ('Alive') 64bit 2019-02-12 17:40:34 / mkvmerge v11.0.0 ('Alive') 64bit 2019-02-12 17:40:34 / UTC 2018-04-19 08:03:35
    FromStats_BitRate           : 888607
    FromStats_Duration          : 00:26:05.940000000
    FromStats_FrameCount        : 37545
    FromStats_StreamSize        : 173938328

    Audio #1
    ID                          : 2
    Format                      : AC-3
    Format/Info                 : Audio Coding 3
    Commercial name             : Dolby Digital
    Codec ID                    : A_AC3
    Duration                    : 26 min 5 s
    Bit rate mode               : Constant
    Bit rate                    : 384 kb/s
    Channel(s)                  : 6 channels
    Channel layout              : L R C LFE Ls Rs
    Sampling rate               : 48.0 kHz
    Frame rate                  : 31.250 FPS (1536 SPF)
    Bit depth                   : 16 bits
    Compression mode            : Lossy
    Stream size                 : 71.7 MiB (23%)
    Title                       : Español latino [CinemaniaHDD]
    Language                    : Spanish
    Service kind                : Complete Main
    Default                     : Yes
    Forced                      : No
    Encoded date                : UTC 2018-04-19 08:05:03
    Statistics Tags Issue       : mkvmerge v11.0.0 ('Alive') 64bit 2019-02-12 17:40:34 / mkvmerge v11.0.0 ('Alive') 64bit 2019-02-12 17:40:34 / UTC 2018-04-19 08:03:35
    FromStats_BitRate           : 384000
    FromStats_Duration          : 00:26:05.984000000
    FromStats_FrameCount        : 48937
    FromStats_StreamSize        : 75167232

    Audio #2
    ID                          : 3
    Format                      : AC-3
    Format/Info                 : Audio Coding 3
    Commercial name             : Dolby Digital
    Codec ID                    : A_AC3
    Duration                    : 26 min 5 s
    Bit rate mode               : Constant
    Bit rate                    : 384 kb/s
    Channel(s)                  : 6 channels
    Channel layout              : L R C LFE Ls Rs
    Sampling rate               : 48.0 kHz
    Frame rate                  : 31.250 FPS (1536 SPF)
    Bit depth                   : 16 bits
    Compression mode            : Lossy
    Stream size                 : 71.7 MiB (23%)
    Title                       : Inglés [CinemaniaHDD]
    Language                    : English
    Service kind                : Complete Main
    Default                     : No
    Forced                      : No
    Encoded date                : UTC 2018-04-19 08:03:35
    Statistics Tags Issue       : mkvmerge v11.0.0 ('Alive') 64bit 2019-02-12 17:40:34 / mkvmerge v11.0.0 ('Alive') 64bit 2019-02-12 17:40:34 / UTC 2018-04-19 08:03:35
    FromStats_BitRate           : 384000
    FromStats_Duration          : 00:26:05.984000000
    FromStats_FrameCount        : 48937
    FromStats_StreamSize        : 75167232

    Text #1
    ID                          : 4
    Format                      : UTF-8
    Codec ID                    : S_TEXT/UTF8
    Codec ID/Info               : UTF-8 Plain Text
    Title                       : Forzados [CinemaniaHDD]
    Language                    : Spanish
    Default                     : Yes
    Forced                      : Yes
    Statistics Tags Issue       : mkvmerge v11.0.0 ('Alive') 64bit 2019-02-12 17:40:34 / mkvmerge v11.0.0 ('Alive') 64bit 2019-02-12 17:40:34 / UTC 2018-04-19 08:03:35
    FromStats_BitRate           : 5
    FromStats_Duration          : 00:25:28.401000000
    FromStats_FrameCount        : 21
    FromStats_StreamSize        : 996

    Text #2
    ID                          : 5
    Format                      : UTF-8
    Codec ID                    : S_TEXT/UTF8
    Codec ID/Info               : UTF-8 Plain Text
    Title                       : Español latino [CinemaniaHDD]
    Language                    : Spanish
    Default                     : No
    Forced                      : No
    Statistics Tags Issue       : mkvmerge v11.0.0 ('Alive') 64bit 2019-02-12 17:40:34 / mkvmerge v11.0.0 ('Alive') 64bit 2019-02-12 17:40:34 / UTC 2018-04-19 08:03:35
    FromStats_BitRate           : 106
    FromStats_Duration          : 00:25:28.401000000
    FromStats_FrameCount        : 510
    FromStats_StreamSize        : 20426

  • Peso: 800MB Aproximado por capitulo (8.43 GB Total)

Sinopsis

Los amigos adolescentes encuentran sus vidas alteradas por las maravillas y los horrores de la pubertad en esta comedia vanguardista de amigos de la vida real Nick Kroll y Andrew Goldberg.

Ficha técnica

Video trailer de la película

Enlaces de descarga

Rip de Bluray

Descargar Big Mouth (2017) Temporada 1 NF 1080p Latino




Aportes de DPeliculasHDmega la pass es:dpeliculashdmega.org Aportes de CinemaniaHD la pass es:cinemaniahdd.com
Guardado en : Animación , Comedia , Series

Películas relacionadas

  • WiFi Ralph (2018) 4K UHD HDR Latino

    2018
    WiFi Ralph (2018) 4K UHD HDR Latino

    5.0 1h 52m 2018

    Descargar WiFi Ralph (2018) 4K UHD HDR Latino, Mega, Google Drive. Ralph sale de los recreativos y......

    Director: Rich Moore

    Género: 4K HDR

    Actores: Wayne Sermon

  • Swing (2018) WEB-DL 1080p Latino

    2018
    Swing (2018) WEB-DL 1080p Latino

    0.0 1h 44m 2018

    En una noche en la que predomina el alcohol, cuatro amigos deciden intercambiar a sus parejas. Esta decisión...

    Director: Luis Smok

    Género: Comedia

    Actores: Tiago Correa

Comentarios 0