×

¿Problemas para descargar con Mozilla, EDGE? Deshabilita la opción "Abrir vinculos en una pestaña nueva" tal como lo muestra ésta imagen.

Big Miracle (2012) REMUX 1080p Latino – CMHDD

134 vistas

Información de Big Miracle (2012) REMUX 1080p Latino – CMHDD

Datos de la película

  • Calidad: Full 1080p
  • Audio: Español Latino DTS 5.1 BLURAY - Ingles DTS 5.1 BLURAY
  • Subtitulos: Español Latino PGS
  • Resolución: 1920x1080p
  • Formato: MKV
  • Codec: H.264
  • Encoder: Dracarys
  • Mediainfo: Clic para Mostrar Datos Ver
  • Format                      : Matroska
    Format version              : Version 4
    File size                   : 25.9 GiB
    Duration                    : 1 h 46 min
    Overall bit rate mode       : Variable
    Overall bit rate            : 34.8 Mb/s
    Movie name                  : Big Miracle (2012) REMUX 1080p Latino - CMHDD
    Encoded date                : UTC 2023-08-30 00:42:38
    Writing application         : mkvmerge v47.0.0 ('Black Flag') 64-bit
    Writing library             : libebml v1.3.10 + libmatroska v1.5.2
    Cover                       : Yes
    Attachments                 : cover.jpg

    Video
    ID                          : 1
    ID in the original source m : 4113 (0x1011)
    Format                      : AVC
    Format/Info                 : Advanced Video Codec
    Format profile              : High@L4.1
    Format settings             : CABAC / 4 Ref Frames
    Format settings, CABAC      : Yes
    Format settings, Reference  : 4 frames
    Codec ID                    : V_MPEG4/ISO/AVC
    Duration                    : 1 h 46 min
    Bit rate mode               : Variable
    Bit rate                    : 30.4 Mb/s
    Maximum bit rate            : 34.0 Mb/s
    Width                       : 1 920 pixels
    Height                      : 1 080 pixels
    Display aspect ratio        : 16:9
    Frame rate mode             : Constant
    Frame rate                  : 23.976 (24000/1001) FPS
    Color space                 : YUV
    Chroma subsampling          : 4:2:0
    Bit depth                   : 8 bits
    Scan type                   : Progressive
    Bits/(Pixel*Frame)          : 0.611
    Stream size                 : 22.7 GiB (87%)
    Default                     : Yes
    Forced                      : No
    Original source medium      : Blu-ray

    Audio #1
    ID                          : 2
    ID in the original source m : 4352 (0x1100)
    Format                      : DTS XLL
    Format/Info                 : Digital Theater Systems
    Commercial name             : DTS-HD Master Audio
    Codec ID                    : A_DTS
    Duration                    : 1 h 46 min
    Bit rate mode               : Variable
    Bit rate                    : 3 596 kb/s
    Channel(s)                  : 6 channels
    Channel layout              : C L R Ls Rs LFE
    Sampling rate               : 48.0 kHz
    Frame rate                  : 93.750 FPS (512 SPF)
    Bit depth                   : 24 bits
    Compression mode            : Lossless
    Stream size                 : 2.68 GiB (10%)
    Language                    : English
    Default                     : No
    Forced                      : No
    Original source medium      : Blu-ray

    Audio #2
    ID                          : 3
    ID in the original source m : 4356 (0x1104)
    Format                      : DTS
    Format/Info                 : Digital Theater Systems
    Codec ID                    : A_DTS
    Duration                    : 1 h 46 min
    Bit rate mode               : Constant
    Bit rate                    : 768 kb/s
    Channel(s)                  : 6 channels
    Channel layout              : C L R Ls Rs LFE
    Sampling rate               : 48.0 kHz
    Frame rate                  : 93.750 FPS (512 SPF)
    Bit depth                   : 24 bits
    Compression mode            : Lossy
    Stream size                 : 587 MiB (2%)
    Language                    : Spanish
    Default                     : Yes
    Forced                      : No
    Original source medium      : Blu-ray

    Text
    ID                          : 4
    ID in the original source m : 4612 (0x1204)
    Format                      : PGS
    Muxing mode                 : zlib
    Codec ID                    : S_HDMV/PGS
    Codec ID/Info               : Picture based subtitle format used on BDs/HD-DVDs
    Duration                    : 1 h 40 min
    Bit rate                    : 45.8 kb/s
    Frame rate                  : 0.510 FPS
    Count of elements           : 3066
    Stream size                 : 32.9 MiB (0%)
    Language                    : Spanish
    Default                     : No
    Forced                      : No
    Original source medium      : Blu-ray

    Menu
    00:00:00.000                : en:Capítulo 01
    00:04:36.985                : en:Capítulo 02
    00:10:40.181                : en:Capítulo 03
    00:16:40.541                : en:Capítulo 04
    00:20:50.374                : en:Capítulo 05
    00:25:37.160                : en:Capítulo 06
    00:30:46.636                : en:Capítulo 07
    00:35:37.218                : en:Capítulo 08
    00:39:52.056                : en:Capítulo 09
    00:45:51.373                : en:Capítulo 10
    00:51:44.101                : en:Capítulo 11
    00:58:16.367                : en:Capítulo 12
    01:03:10.536                : en:Capítulo 13
    01:07:58.532                : en:Capítulo 14
    01:12:06.864                : en:Capítulo 15
    01:17:25.223                : en:Capítulo 16
    01:24:53.505                : en:Capítulo 17
    01:28:05.613                : en:Capítulo 18
    01:35:42.737                : en:Capítulo 19
    01:38:46.378                : en:Capítulo 20

  • Peso: 25.9 GiB

Sinopsis

Basada en hechos reales. Un periodista (John Krasinski), que vive en una pequeña ciudad, y una voluntaria de Greenpeace (Drew Barrymore) se proponen salvar a una familia de majestuosas ballenas grises atrapadas en el hielo del Círculo Polar Ártico. La pareja debe convencer a los miembros de la comunidad inuit, a empresas petroleras y al ejército estadounidense para que olviden sus diferencias y liberen a las ballenas. Mientras el mundo está pendiente de lo que ocurre en el Ártico, la salvación de esas ballenas sirve para unir a naciones enfrentadas, hasta el punto de conseguir un deshielo momentáneo de la Guerra Fría.

Ficha técnica

  • Titulo original: Big Miracle
  • Fecha de lanzamiento: 02-02-2012 (United Kingdom, United States of America)
  • Director: Ken Kwapis
  • Género: Aventura, Drama, Romance

Video trailer de la película

Enlaces de descarga

Rip de Bluray

Descargar Big Miracle (2012) REMUX 1080p Latino – CMHDD


Aportes de DPeliculasHDmega la pass es:dpeliculashdmega.org Aportes de CinemaniaHD la pass es:cinemaniahdd.com Aportes recientes:cinemaniahdd.net
Guardado en : Aventura , Drama , Romance

Películas relacionadas

descargar Big Miracle (2012) REMUX 1080p Latino – CMHDD Full 1080p 1080p gratis, Big Miracle (2012) REMUX 1080p Latino – CMHDD Full 1080p mega 1 link, Big Miracle (2012) REMUX 1080p Latino – CMHDD Full 1080p pelicula completa, descargar Big Miracle (2012) REMUX 1080p Latino – CMHDD Full 1080p gratis en mega.

Big Miracle (2012) REMUX 1080p Latino – CMHDD pelicula full hd, Big Miracle (2012) REMUX 1080p Latino – CMHDD mega latino, Big Miracle (2012) REMUX 1080p Latino – CMHDD 4k latino, Big Miracle (2012) REMUX 1080p Latino – CMHDD pelicula completa, Big Miracle (2012) REMUX 1080p Latino – CMHDD descargar gratis, descargar Big Miracle (2012) REMUX 1080p Latino – CMHDD pelicula latino, Big Miracle (2012) REMUX 1080p Latino – CMHDD 1 link mega, Big Miracle (2012) REMUX 1080p Latino – CMHDD 1 link google drive, Big Miracle (2012) REMUX 1080p Latino – CMHDD hd 1080p latino.
Comentarios 0