×

¿Problemas para descargar con Mozilla, EDGE? Deshabilita la opción "Abrir vinculos en una pestaña nueva" tal como lo muestra ésta imagen.

Grandes Heroes (2014) 1080p Latino

570 vistas

Información de Grandes Heroes (2014) 1080p Latino

Datos de la película

  • Calidad: 1080p
  • Audio: Español Latino AC3 5.1 BLURAY - Ingles AC3 5.1 BLURAY
  • Subtitulos: Español Latino SRT - Ingles SRT
  • Resolución: 1920x804p
  • Formato: MKV
  • Codec: H.264
  • Encoder: CinefiloCool
  • Mediainfo: Clic para Mostrar Datos Ver
  • Grandes Heroes (2014) 1080p Latino-CMHDD.mkv
    Format                      : Matroska
    Format version              : Version 4
    File size                   : 3.27 GiB
    Duration                    : 1 h 42 min
    Overall bit rate            : 4 562 kb/s
    Movie name                  : CinemaniaHDD.Net
    Encoded date                : UTC 2019-11-18 06:11:04
    Writing application         : mkvmerge v38.0.0 ('The Silent Type') 64-bit
    Writing library             : libebml v1.3.9 + libmatroska v1.5.2
    Attachments                 : CINEMANIAHD.png

    Video
    ID                          : 1
    Format                      : AVC
    Format/Info                 : Advanced Video Codec
    Format profile              : High@L4.1
    Format settings             : CABAC / 5 Ref Frames
    Format settings, CABAC      : Yes
    Format settings, ReFrames   : 5 frames
    Codec ID                    : V_MPEG4/ISO/AVC
    Duration                    : 1 h 41 min
    Bit rate                    : 3 500 kb/s
    Width                       : 1 920 pixels
    Height                      : 804 pixels
    Display aspect ratio        : 2.40:1
    Frame rate mode             : Constant
    Frame rate                  : 23.976 (24000/1001) FPS
    Color space                 : YUV
    Chroma subsampling          : 4:2:0
    Bit depth                   : 8 bits
    Scan type                   : Progressive
    Bits/(Pixel*Frame)          : 0.095
    Stream size                 : 2.49 GiB (76%)
    Title                       : HD1080p [Bluray]
    Writing library             : x264 core 157 r2935 545de2f
    Encoding settings           : cabac=1 / ref=5 / deblock=1:1:1 / analyse=0x3:0x133 / me=umh / subme=9 / psy=1 / psy_rd=0.40:0.00 / mixed_ref=1 / me_range=16 / chroma_me=1 / trellis=2 / 8x8dct=1 / cqm=0 / deadzone=21,11 / fast_pskip=1 / chroma_qp_offset=-2 / threads=25 / lookahead_threads=2 / sliced_threads=0 / nr=0 / decimate=1 / interlaced=0 / bluray_compat=0 / constrained_intra=0 / bframes=5 / b_pyramid=2 / b_adapt=2 / b_bias=0 / direct=3 / weightb=1 / open_gop=0 / weightp=2 / keyint=240 / keyint_min=24 / scenecut=40 / intra_refresh=0 / rc_lookahead=60 / rc=2pass / mbtree=1 / bitrate=3500 / ratetol=1.0 / qcomp=0.60 / qpmin=0 / qpmax=69 / qpstep=4 / cplxblur=20.0 / qblur=0.5 / vbv_maxrate=62500 / vbv_bufsize=78125 / nal_hrd=none / filler=0 / ip_ratio=1.40 / aq=1:0.60
    Default                     : Yes
    Forced                      : Yes
    Color range                 : Limited
    Color primaries             : BT.709
    Transfer characteristics    : BT.709
    Matrix coefficients         : BT.709

    Audio #1
    ID                          : 2
    Format                      : AC-3
    Format/Info                 : Audio Coding 3
    Commercial name             : Dolby Digital
    Codec ID                    : A_AC3
    Duration                    : 1 h 41 min
    Bit rate mode               : Constant
    Bit rate                    : 640 kb/s
    Channel(s)                  : 6 channels
    Channel layout              : L R C LFE Ls Rs
    Sampling rate               : 48.0 kHz
    Frame rate                  : 31.250 FPS (1536 SPF)
    Bit depth                   : 16 bits
    Compression mode            : Lossy
    Stream size                 : 466 MiB (14%)
    Title                       : AC3_5.1_Bluray_Esp
    Language                    : Spanish
    Service kind                : Complete Main
    Default                     : Yes
    Forced                      : Yes

    Audio #2
    ID                          : 3
    Format                      : AC-3
    Format/Info                 : Audio Coding 3
    Commercial name             : Dolby Digital
    Codec ID                    : A_AC3
    Duration                    : 1 h 41 min
    Bit rate mode               : Constant
    Bit rate                    : 448 kb/s
    Channel(s)                  : 6 channels
    Channel layout              : L R C LFE Ls Rs
    Sampling rate               : 48.0 kHz
    Frame rate                  : 31.250 FPS (1536 SPF)
    Bit depth                   : 16 bits
    Compression mode            : Lossy
    Delay relative to video     : -5 ms
    Stream size                 : 326 MiB (10%)
    Title                       : AC3_5.1_Bluray_Eng
    Language                    : English
    Service kind                : Complete Main
    Default                     : No
    Forced                      : No

    Text #1
    ID                          : 4
    Format                      : UTF-8
    Codec ID                    : S_TEXT/UTF8
    Codec ID/Info               : UTF-8 Plain Text
    Duration                    : 1 h 40 min
    Bit rate                    : 50 b/s
    Count of elements           : 1267
    Stream size                 : 37.0 KiB (0%)
    Title                       : Sub_Esp
    Language                    : Spanish
    Default                     : No
    Forced                      : No

    Text #2
    ID                          : 5
    Format                      : UTF-8
    Codec ID                    : S_TEXT/UTF8
    Codec ID/Info               : UTF-8 Plain Text
    Duration                    : 1 h 42 min
    Bit rate                    : 51 b/s
    Count of elements           : 1476
    Stream size                 : 38.9 KiB (0%)
    Title                       : Sub_Eng
    Language                    : English
    Default                     : No
    Forced                      : No

    Menu
    00:00:00.000                : :Chapter 1
    00:07:15.727                : :Chapter 2
    00:14:37.877                : :Chapter 3
    00:21:49.183                : :Chapter 4
    00:24:32.930                : :Chapter 5
    00:29:34.773                : :Chapter 6
    00:36:58.091                : :Chapter 7
    00:44:18.364                : :Chapter 8
    00:50:49.088                : :Chapter 9
    00:54:33.061                : :Chapter 10
    01:00:44.182                : :Chapter 11
    01:07:12.654                : :Chapter 12
    01:11:54.685                : :Chapter 13
    01:16:26.707                : :Chapter 14
    01:24:44.204                : :Chapter 15
    01:31:52.799                : :Chapter 16

  • Peso: 3.27 GiB

Sinopsis

Descargar Grandes Heroes (2014) 1080p Latino. En la metrópolis de San Fransokyo (cruce de San Francisco y Tokio), vive Hiro Hamada, quien aprende a sacar provecho de su capacidad gracias a su brillante hermano Tadashi y sus también brillantes amigos: la buscadora de adrenalina GoGo Tamago, el meticuloso de la limpieza Wasabi-No-Ginger, la genia de la química Honey Lemon y el fanático de los cómics Fred. Cuando tras un devastador giro de los acontecimientos, se ven envueltos en una peligrosa conspiración que tiene lugar en las calles de San Fransokyo, Hiro recurre a su amigo más íntimo: un robot llamado Baymax, y transforma al grupo en una banda de héroes de última tecnología decididos a resolver el misterio. Adaptación animada del cómic de Marvel.

Ficha técnica

Video trailer de la película

Enlaces de descarga

Rip de Bluray

Descargar Grandes Heroes (2014) 1080p Latino




Aportes de DPeliculasHDmega la pass es:dpeliculashdmega.org Aportes de CinemaniaHD la pass es:cinemaniahdd.com

Películas relacionadas

  • Paratemporal (2019) HD 1080p Latino

    Paratemporal (2019) HD 1080p Latino

    2020
    Paratemporal (2019) HD 1080p Latino

    1h 42m 2020

    Descargar Paratemporal (2019) HD 1080p Latino. Dos paramédicos de Nueva Orleans ven cómo sus vidas...

    Director: Sandy Parker

    Género: Ciencia ficción

    Actores: Walker Babington

  • Emergency (2022) AMZN WEB-DL 1080p Latino

    Emergency (2022) AMZN WEB-DL 1080p Latino

    2022
    Emergency (2022) AMZN WEB-DL 1080p Latino

    1h 45m 2022

    Listos para una noche legendaria de fiestas, tres estudiantes universitarios deben sopesar...

    Director: Carey Williams

    Género: Comedia

    Actores: Sebastian Chacon

  • Corazón de Fuego (2022) AMZN Web-DL 1080p Latino

    Corazón de Fuego (2022) AMZN Web-DL 1080p Latino

    2022
    Corazón de Fuego (2022) AMZN Web-DL 1080p Latino

    1h 32m 2022

    Descargar Corazón de Fuego (2022) AMZN Web-DL 1080p Latino. Georgia Nolan sueña con ser la primera...

    Director: Theodore Anthony Lee Ty

    Género: Animación

    Actores: William Shatner

  • El Hombre del Norte (2022) REMUX 1080p Latino

    El Hombre del Norte (2022) REMUX 1080p Latino

    2022
    El Hombre del Norte (2022) REMUX 1080p Latino

    2h 17m 2022

    Descargar El Hombre del Norte (2022) REMUX 1080p Latino. El príncipe Amleth está a punto de convertirse...

    Director: Therese Friel

    Género: Acción

    Actores: Willem Dafoe

Grandes Heroes (2014) 1080p Latino pelicula full hd, Grandes Heroes (2014) 1080p Latino mega latino, Grandes Heroes (2014) 1080p Latino 4k latino, Grandes Heroes (2014) 1080p Latino pelicula completa, Grandes Heroes (2014) 1080p Latino descargar gratis, descargar Grandes Heroes (2014) 1080p Latino pelicula latino, Grandes Heroes (2014) 1080p Latino 1 link mega, Grandes Heroes (2014) 1080p Latino 1 link google drive, Grandes Heroes (2014) 1080p Latino hd 1080p latino.
Comentarios 0