El Gran Pez (2003) REMUX 1080p Latino

18 vistas
1 estrella2 estrellas3 estrellas4 estrellas5 estrellas (1 votos, promedio: 5,00 de 5)
Cargando...

Información de El Gran Pez (2003) REMUX 1080p Latino

Datos de la película

  • Calidad: Full 1080p
  • Audio: Se especifica abajo de la Sinopsis
  • Subtitulos: Español Latino PGS - Ingles PGS
  • Resolución: 1920x1080p
  • Formato: MKV
  • Codec: H.264
  • Encoder: CinefiloCool
  • Mediainfo: Clic para Mostrar Datos Ver
  • El Gran Pez (2003) REMUX 1080p Latino-CMHDD.mkv
    Format                      : Matroska
    Format version              : Version 4
    File size                   : 24.1 GiB
    Duration                    : 2 h 5 min
    Overall bit rate mode       : Variable
    Overall bit rate            : 27.6 Mb/s
    Movie name                  : Big Fish (2003) CinemaniaHDD.Net
    Encoded date                : UTC 2021-04-06 06:09:06
    Writing application         : mkvmerge v51.0.0 ('I Wish') 64-bit
    Writing library             : libebml v1.4.0 + libmatroska v1.6.2
    Attachments                 : CINEMANIAHD.png

    Video
    ID                          : 1
    Format                      : MPEG Video
    Format version              : Version 2
    Format profile              : Main@High
    Format settings             : CustomMatrix / BVOP
    Format settings, BVOP       : Yes
    Format settings, Matrix     : Custom
    Format settings, GOP        : M=3, N=15
    Codec ID                    : V_MPEG2
    Codec ID/Info               : MPEG 1 or 2 Video
    Duration                    : 2 h 5 min
    Bit rate mode               : Variable
    Bit rate                    : 24.3 Mb/s
    Maximum bit rate            : 35.0 Mb/s
    Width                       : 1 920 pixels
    Height                      : 1 080 pixels
    Display aspect ratio        : 16:9
    Frame rate mode             : Constant
    Frame rate                  : 23.976 (24000/1001) FPS
    Color space                 : YUV
    Chroma subsampling          : 4:2:0
    Bit depth                   : 8 bits
    Scan type                   : Progressive
    Compression mode            : Lossy
    Bits/(Pixel*Frame)          : 0.488
    Time code of first frame    : 00:00:00:00
    Time code source            : Group of pictures header
    GOP, Open/Closed            : Open
    GOP, Open/Closed of first f : Closed
    Stream size                 : 21.2 GiB (88%)
    Title                       : REMUX HD1080p [CinemaniaHDD]
    Default                     : Yes
    Forced                      : Yes

    Audio #1
    ID                          : 2
    Format                      : E-AC-3
    Format/Info                 : Enhanced AC-3
    Commercial name             : Dolby Digital Plus
    Codec ID                    : A_EAC3
    Duration                    : 2 h 5 min
    Bit rate mode               : Constant
    Bit rate                    : 640 kb/s
    Channel(s)                  : 6 channels
    Channel layout              : L R C LFE Ls Rs
    Sampling rate               : 48.0 kHz
    Frame rate                  : 31.250 FPS (1536 SPF)
    Compression mode            : Lossy
    Delay relative to video     : 13 ms
    Stream size                 : 573 MiB (2%)
    Title                       : Español Latino EAC3 [CinemaniaHDD]
    Language                    : Spanish
    Service kind                : Complete Main
    Default                     : Yes
    Forced                      : Yes

    Audio #2
    ID                          : 3
    Format                      : MLP FBA
    Format/Info                 : Meridian Lossless Packing FBA
    Commercial name             : Dolby TrueHD
    Codec ID                    : A_TRUEHD
    Duration                    : 2 h 5 min
    Bit rate mode               : Variable
    Bit rate                    : 1 499 kb/s
    Maximum bit rate            : 2 766 kb/s
    Channel(s)                  : 6 channels
    Channel layout              : L R C LFE Ls Rs
    Sampling rate               : 48.0 kHz
    Frame rate                  : 1 200.000 FPS (40 SPF)
    Compression mode            : Lossless
    Stream size                 : 1.31 GiB (5%)
    Title                       : Ingles THD [CinemaniaHDD]
    Language                    : English
    Default                     : No
    Forced                      : No

    Audio #3
    ID                          : 4
    Format                      : AC-3
    Format/Info                 : Audio Coding 3
    Commercial name             : Dolby Digital
    Codec ID                    : A_AC3
    Duration                    : 2 h 5 min
    Bit rate mode               : Constant
    Bit rate                    : 640 kb/s
    Channel(s)                  : 6 channels
    Channel layout              : L R C LFE Ls Rs
    Sampling rate               : 48.0 kHz
    Frame rate                  : 31.250 FPS (1536 SPF)
    Compression mode            : Lossy
    Delay relative to video     : 13 ms
    Stream size                 : 573 MiB (2%)
    Title                       : Español Latino AC3 [CinemaniaHDD]
    Language                    : Spanish
    Service kind                : Complete Main
    Default                     : No
    Forced                      : No

    Audio #4
    ID                          : 5
    Format                      : AC-3
    Format/Info                 : Audio Coding 3
    Commercial name             : Dolby Digital
    Codec ID                    : A_AC3
    Duration                    : 2 h 5 min
    Bit rate mode               : Constant
    Bit rate                    : 448 kb/s
    Channel(s)                  : 6 channels
    Channel layout              : L R C LFE Ls Rs
    Sampling rate               : 48.0 kHz
    Frame rate                  : 31.250 FPS (1536 SPF)
    Compression mode            : Lossy
    Stream size                 : 401 MiB (2%)
    Title                       : Ingles AC3 [CinemaniaHDD]
    Language                    : English
    Service kind                : Complete Main
    Default                     : No
    Forced                      : No

    Text #1
    ID                          : 6
    Format                      : PGS
    Muxing mode                 : zlib
    Codec ID                    : S_HDMV/PGS
    Codec ID/Info               : Picture based subtitle format used on BDs/HD-DVDs
    Duration                    : 1 h 59 min
    Bit rate                    : 28.3 kb/s
    Count of elements           : 2356
    Stream size                 : 24.1 MiB (0%)
    Title                       : Español-PGS [CinemaniaHDD]
    Language                    : Spanish
    Default                     : No
    Forced                      : No

    Text #2
    ID                          : 7
    Format                      : PGS
    Muxing mode                 : zlib
    Codec ID                    : S_HDMV/PGS
    Codec ID/Info               : Picture based subtitle format used on BDs/HD-DVDs
    Duration                    : 1 h 59 min
    Bit rate                    : 48.7 kb/s
    Count of elements           : 2288
    Stream size                 : 41.5 MiB (0%)
    Title                       : Ingles-PGS [CinemaniaHDD]
    Language                    : English
    Default                     : No
    Forced                      : No

    Text #3
    ID                          : 8
    Format                      : UTF-8
    Codec ID                    : S_TEXT/UTF8
    Codec ID/Info               : UTF-8 Plain Text
    Duration                    : 1 h 21 min
    Bit rate                    : 1 b/s
    Count of elements           : 28
    Stream size                 : 697 Bytes (0%)
    Title                       : Forzados-SRT [CinemaniaHDD]
    Language                    : Spanish
    Default                     : Yes
    Forced                      : Yes

    Text #4
    ID                          : 9
    Format                      : UTF-8
    Codec ID                    : S_TEXT/UTF8
    Codec ID/Info               : UTF-8 Plain Text
    Duration                    : 1 h 59 min
    Bit rate                    : 51 b/s
    Count of elements           : 1178
    Stream size                 : 45.0 KiB (0%)
    Title                       : Español-SRT [CinemaniaHDD]
    Language                    : Spanish
    Default                     : No
    Forced                      : No

    Menu
    00:00:00.000                : en:Start
    00:08:47.985                : en:An Alabama Swamp Witch
    00:15:03.611                : en:Ed Bloom
    00:22:47.407                : en:Three Years Confinement
    00:30:24.072                : en:Hotshot in Hicksville
    00:42:43.060                : en:Karl the Giant
    00:49:50.696                : en:Shortcut Through the Woods
    00:56:46.653                : en:Welcome to Spectre
    01:03:17.919                : en:The Girl in the River
    01:08:36.779                : en:Crow Dreams
    01:22:07.547                : en:The Calloway Circus
    01:30:10.947                : en:The Love of His Live
    01:36:26.906                : en:Amos Calloway
    01:45:12.723                : en:The Werewolf
    01:48:58.657                : en:Engaged to Be Married
    01:56:41.077                : en:Courtship of Sandra Templeton

  • Peso: 24.1 GiB

Sinopsis

Descargar El Gran Pez (2003) REMUX 1080p Latino. «Big Fish» cuenta la historia entre un padre moribundo, Edward Bloom (Albert Finney), y su hijo Will (Ewan McGregor), quien trata de aprender más acerca de su progenitor, reuniendo las distintas historias que este le ha contado. Así, Will recrea su vida en una serie de leyendas y mitos inspirados por los pocos hechos que conoce. Pero a partir del deseo de su madre Sandy, por reunir al padre con su hijo, este comienza a comprender la debacle de su padre. En sus relatos hay viajes alrededor del mundo, y delirios que incluyen gigantes, tornados y brujas.

Audio Español Latino EAC3 5.1 + AC3 5.1 Bluray – Ingles TrueHD + AC3 5.1 Bluray

Ficha técnica

Video trailer de la película

Enlaces de descarga

Rip de Bluray

Descargar El Gran Pez (2003) REMUX 1080p Latino




Aportes de DPeliculasHDmega la pass es:dpeliculashdmega.org Aportes de CinemaniaHD la pass es:cinemaniahdd.com
Guardado en : Aventura , Drama , Fantasía , Remux

Películas relacionadas

El Gran Pez (2003) REMUX 1080p Latino pelicula full hd, El Gran Pez (2003) REMUX 1080p Latino mega latino, El Gran Pez (2003) REMUX 1080p Latino 4k latino, El Gran Pez (2003) REMUX 1080p Latino pelicula completa, El Gran Pez (2003) REMUX 1080p Latino descargar gratis, descargar El Gran Pez (2003) REMUX 1080p Latino pelicula latino, El Gran Pez (2003) REMUX 1080p Latino 1 link mega, El Gran Pez (2003) REMUX 1080p Latino 1 link google drive, El Gran Pez (2003) REMUX 1080p Latino hd 1080p latino.
Comentarios 0