×

¿Problemas para descargar con Mozilla, EDGE? Deshabilita la opción "Abrir vinculos en una pestaña nueva" tal como lo muestra ésta imagen.

Resident Evil: Bienvenidos A Raccoon City (2021) REMUX 1080p Latino

667 vistas

Información de Resident Evil: Bienvenidos A Raccoon City (2021) REMUX 1080p Latino

Datos de la película

  • Calidad: Full 1080p
  • Audio: Español Latino AC3 5.1 BLURAY - Ingles DTS 5.1 BLURAY
  • Subtitulos: Español Latino PGS - Ingles PGS
  • Resolución: 1920x1080p
  • Formato: MKV
  • Codec: H.264
  • Encoder: Melkor
  • Mediainfo: Clic para Mostrar Datos Ver
  • R. E. Bienvenidos a Raccoon City (2021) REMUX 1080p Latino.mkv
    Format                      : Matroska
    Format version              : Version 4
    File size                   : 23.0 GiB
    Duration                    : 1 h 47 min
    Overall bit rate mode       : Variable
    Overall bit rate            : 30.7 Mb/s
    Movie name                  : Resident Evil - Welcome to Raccoon City (2021) CinemaniaHDD.Net
    Encoded date                : UTC 2022-02-05 22:12:00
    Writing application         : mkvmerge v56.1.0 ('My Friend') 64-bit
    Writing library             : libebml v1.4.2 + libmatroska v1.6.4
    Attachments                 : CINEMANIAHD.png

    Video
    ID                          : 1
    ID in the original source m : 4113 (0x1011)
    Format                      : AVC
    Format/Info                 : Advanced Video Codec
    Format profile              : High@L4.1
    Format settings             : CABAC / 2 Ref Frames
    Format settings, CABAC      : Yes
    Format settings, Reference  : 2 frames
    Format settings, GOP        : M=1, N=10
    Codec ID                    : V_MPEG4/ISO/AVC
    Duration                    : 1 h 47 min
    Bit rate mode               : Variable
    Bit rate                    : 27.8 Mb/s
    Width                       : 1 920 pixels
    Height                      : 1 080 pixels
    Display aspect ratio        : 16:9
    Frame rate mode             : Constant
    Frame rate                  : 23.976 (24000/1001) FPS
    Color space                 : YUV
    Chroma subsampling          : 4:2:0
    Bit depth                   : 8 bits
    Scan type                   : Progressive
    Bits/(Pixel*Frame)          : 0.558
    Stream size                 : 20.8 GiB (90%)
    Title                       : REMUX HD1080p [CinemaniaHDD]
    Default                     : Yes
    Forced                      : Yes
    Original source medium      : Blu-ray

    Audio #1
    ID                          : 2
    ID in the original source m : 4354 (0x1102)
    Format                      : AC-3
    Format/Info                 : Audio Coding 3
    Commercial name             : Dolby Digital
    Codec ID                    : A_AC3
    Duration                    : 1 h 47 min
    Bit rate mode               : Constant
    Bit rate                    : 640 kb/s
    Channel(s)                  : 6 channels
    Channel layout              : L R C LFE Ls Rs
    Sampling rate               : 48.0 kHz
    Frame rate                  : 31.250 FPS (1536 SPF)
    Compression mode            : Lossy
    Stream size                 : 492 MiB (2%)
    Title                       : Español Latino [CinemaniaHDD]
    Language                    : Spanish
    Service kind                : Complete Main
    Default                     : Yes
    Forced                      : Yes
    Original source medium      : Blu-ray

    Audio #2
    ID                          : 3
    ID in the original source m : 4352 (0x1100)
    Format                      : DTS XLL
    Format/Info                 : Digital Theater Systems
    Commercial name             : DTS-HD Master Audio
    Codec ID                    : A_DTS
    Duration                    : 1 h 47 min
    Bit rate mode               : Variable
    Bit rate                    : 2 283 kb/s
    Channel(s)                  : 6 channels
    Channel layout              : C L R Ls Rs LFE
    Sampling rate               : 48.0 kHz
    Frame rate                  : 93.750 FPS (512 SPF)
    Bit depth                   : 16 bits
    Compression mode            : Lossless
    Stream size                 : 1.71 GiB (7%)
    Title                       : Ingles [CinemaniaHDD]
    Language                    : English
    Default                     : No
    Forced                      : No
    Original source medium      : Blu-ray

    Text #1
    ID                          : 4
    Format                      : PGS
    Muxing mode                 : zlib
    Codec ID                    : S_HDMV/PGS
    Codec ID/Info               : Picture based subtitle format used on BDs/HD-DVDs
    Duration                    : 1 h 42 min
    Bit rate                    : 951 b/s
    Count of elements           : 68
    Stream size                 : 714 KiB (0%)
    Title                       : Forzados-PGS [CinemaniaHDD]
    Language                    : Spanish
    Default                     : No
    Forced                      : No

    Text #2
    ID                          : 5
    ID in the original source m : 4611 (0x1203)
    Format                      : PGS
    Muxing mode                 : zlib
    Codec ID                    : S_HDMV/PGS
    Codec ID/Info               : Picture based subtitle format used on BDs/HD-DVDs
    Duration                    : 1 h 46 min
    Bit rate                    : 16.9 kb/s
    Count of elements           : 1654
    Stream size                 : 12.8 MiB (0%)
    Title                       : Español-PGS [CinemaniaHDD]
    Language                    : Spanish
    Default                     : No
    Forced                      : No
    Original source medium      : Blu-ray

    Text #3
    ID                          : 6
    ID in the original source m : 4608 (0x1200)
    Format                      : PGS
    Muxing mode                 : zlib
    Codec ID                    : S_HDMV/PGS
    Codec ID/Info               : Picture based subtitle format used on BDs/HD-DVDs
    Duration                    : 1 h 40 min
    Bit rate                    : 23.5 kb/s
    Count of elements           : 1959
    Stream size                 : 16.9 MiB (0%)
    Title                       : Ingles-PGS [CinemaniaHDD]
    Language                    : English
    Default                     : No
    Forced                      : No
    Original source medium      : Blu-ray

    Text #4
    ID                          : 7
    Format                      : UTF-8
    Codec ID                    : S_TEXT/UTF8
    Codec ID/Info               : UTF-8 Plain Text
    Duration                    : 1 h 33 min
    Bit rate                    : 1 b/s
    Count of elements           : 33
    Stream size                 : 962 Bytes (0%)
    Title                       : Forzados-SRT [CinemaniaHDD]
    Language                    : Spanish
    Default                     : Yes
    Forced                      : Yes

    Text #5
    ID                          : 8
    Format                      : UTF-8
    Codec ID                    : S_TEXT/UTF8
    Codec ID/Info               : UTF-8 Plain Text
    Duration                    : 1 h 40 min
    Bit rate                    : 37 b/s
    Count of elements           : 963
    Stream size                 : 27.3 KiB (0%)
    Title                       : Español-SRT [CinemaniaHDD]
    Language                    : Spanish
    Default                     : No
    Forced                      : No

    Menu
    00:00:00.000                : Chapter 01
    00:10:02.643                : Chapter 02
    00:18:14.176                : Chapter 03
    00:26:05.772                : Chapter 04
    00:33:51.070                : Chapter 05
    00:38:29.598                : Chapter 06
    00:45:53.834                : Chapter 07
    00:51:21.244                : Chapter 08
    00:54:49.286                : Chapter 09
    01:00:29.751                : Chapter 10
    01:05:52.990                : Chapter 11
    01:10:04.074                : Chapter 12
    01:13:17.810                : Chapter 13
    01:14:56.325                : Chapter 14
    01:18:43.343                : Chapter 15
    01:32:31.671                : Chapter 16

  • Peso: 23.0 GiB

Sinopsis

Descargar Resident Evil: Bienvenidos A Raccoon City (2021) REMUX 1080p Latino. Nueva adaptación al cine de los videojuegos de Capcom. La que fue una pujante ciudad sede del gigante farmacéutico Umbrella Corporation, Raccoon City, es ahora un pueblo agonizante del Medio Oeste. El éxodo de la compañía dejó a la ciudad convertida en un erial… con un gran mal gestándose bajo la superficie. Cuando ese mal se desata, un grupo de supervivientes deben unirse para destapar la verdad detrás de Umbrella y sobrevivir a la noche.

Ficha técnica

Video trailer de la película

Enlaces de descarga

Rip de Bluray

Descargar Resident Evil: Bienvenidos A Raccoon City (2021) REMUX 1080p Latino




Aportes de DPeliculasHDmega la pass es:dpeliculashdmega.org Aportes de CinemaniaHD la pass es:cinemaniahdd.com
Guardado en : Acción , Ciencia ficción , Remux , Terror

Películas relacionadas

  • Hombre de familia (2000) REMUX 1080p Latino

    Hombre de familia (2000) REMUX 1080p Latino

    2000
    Hombre de familia (2000) REMUX 1080p Latino

    2h 1m 2000

    Descargar Hombre de familia (2000) REMUX 1080p Latino. Jack Campbell es un egocéntrico broker de Wall...

    Director: Robert Schroer

    Género: Comedia

    Actores: Wass Stevens

  • Anon (2018) REMUX 1080p Latino

    Anon (2018) REMUX 1080p Latino

    2018
    Anon (2018) REMUX 1080p Latino

    1h 40m 2018

    Descargar Anon (2018) REMUX 1080p Latino. Anon nos lleva hasta un futuro no muy lejano al estilo soviético,...

    Director: Sarah Campbell

    Género: Ciencia ficción

    Actores: Zion Lee

descargar Resident Evil: Bienvenidos A Raccoon City (2021) REMUX 1080p Latino Full 1080p 1080p gratis, Resident Evil: Bienvenidos A Raccoon City (2021) REMUX 1080p Latino Full 1080p mega 1 link, Resident Evil: Bienvenidos A Raccoon City (2021) REMUX 1080p Latino Full 1080p pelicula completa, descargar Resident Evil: Bienvenidos A Raccoon City (2021) REMUX 1080p Latino Full 1080p gratis en mega.

Resident Evil: Bienvenidos A Raccoon City (2021) REMUX 1080p Latino pelicula full hd, Resident Evil: Bienvenidos A Raccoon City (2021) REMUX 1080p Latino mega latino, Resident Evil: Bienvenidos A Raccoon City (2021) REMUX 1080p Latino 4k latino, Resident Evil: Bienvenidos A Raccoon City (2021) REMUX 1080p Latino pelicula completa, Resident Evil: Bienvenidos A Raccoon City (2021) REMUX 1080p Latino descargar gratis, descargar Resident Evil: Bienvenidos A Raccoon City (2021) REMUX 1080p Latino pelicula latino, Resident Evil: Bienvenidos A Raccoon City (2021) REMUX 1080p Latino 1 link mega, Resident Evil: Bienvenidos A Raccoon City (2021) REMUX 1080p Latino 1 link google drive, Resident Evil: Bienvenidos A Raccoon City (2021) REMUX 1080p Latino hd 1080p latino.
Comentarios 0