×

¿Problemas para descargar con Mozilla, EDGE? Deshabilita la opción "Abrir vinculos en una pestaña nueva" tal como lo muestra ésta imagen.

Bienvenidos a Marwen (2018) remux 1080p Latino

449 vistas

Información de Bienvenidos a Marwen (2018) remux 1080p Latino

bienvenidos a marwen 50810 poster

Datos de la película

  • Calidad: Full 1080p
  • Audio: Español Latino AC3 5.1 BLURAY - Ingles DTS 5.1 BLURAY
  • Subtitulos: Español Latino PGS - Ingles PGS
  • Resolución: 1920x1080
  • Formato: MKV
  • Codec: H.264
  • Encoder: FGT
  • Mediainfo: Clic para Mostrar Datos Ver
  • Welcome To Marwen (2018) REMUX 1080p Latino.mkv
    Format                      : Matroska
    Format version              : Version 4
    File size                   : 31.8 GiB
    Duration                    : 1 h 55 min
    Overall bit rate mode       : Variable
    Overall bit rate            : 39.3 Mb/s
    Movie name                  : CinemaniaHDD.net
    Encoded date                : UTC 2019-04-01 21:04:07
    Writing application         : mkvmerge v30.1.0 ('Forever And More') 64-bit
    Writing library             : libebml v1.3.6 + libmatroska v1.4.9

    Video
    ID                          : 1
    Format                      : AVC
    Format/Info                 : Advanced Video Codec
    Format profile              : High@L4.1
    Format settings             : CABAC / 4 Ref Frames
    Format settings, CABAC      : Yes
    Format settings, ReFrames   : 4 frames
    Codec ID                    : V_MPEG4/ISO/AVC
    Duration                    : 1 h 55 min
    Bit rate mode               : Variable
    Bit rate                    : 35.1 Mb/s
    Maximum bit rate            : 39.1 Mb/s
    Width                       : 1 920 pixels
    Height                      : 1 080 pixels
    Display aspect ratio        : 16:9
    Frame rate mode             : Constant
    Frame rate                  : 23.976 (24000/1001) FPS
    Color space                 : YUV
    Chroma subsampling          : 4:2:0
    Bit depth                   : 8 bits
    Scan type                   : Progressive
    Bits/(Pixel*Frame)          : 0.705
    Stream size                 : 28.4 GiB (89%)
    Language                    : English
    Default                     : No
    Forced                      : No

    Audio #1
    ID                          : 2
    Format                      : AC-3
    Format/Info                 : Audio Coding 3
    Commercial name             : Dolby Digital
    Codec ID                    : A_AC3
    Duration                    : 1 h 55 min
    Bit rate mode               : Constant
    Bit rate                    : 640 kb/s
    Channel(s)                  : 6 channels
    Channel layout              : L R C LFE Ls Rs
    Sampling rate               : 48.0 kHz
    Frame rate                  : 31.250 FPS (1536 SPF)
    Bit depth                   : 16 bits
    Compression mode            : Lossy
    Stream size                 : 531 MiB (2%)
    Language                    : Spanish
    Service kind                : Complete Main
    Default                     : Yes
    Forced                      : No

    Audio #2
    ID                          : 3
    Format                      : DTS XLL
    Format/Info                 : Digital Theater Systems
    Commercial name             : DTS-HD Master Audio
    Codec ID                    : A_DTS
    Duration                    : 1 h 55 min
    Bit rate mode               : Variable
    Bit rate                    : 3 543 kb/s
    Channel(s)                  : 6 channels
    Channel layout              : C L R Ls Rs LFE
    Sampling rate               : 48.0 kHz
    Frame rate                  : 93.750 FPS (512 SPF)
    Bit depth                   : 24 bits
    Compression mode            : Lossless
    Stream size                 : 2.87 GiB (9%)
    Language                    : English
    Default                     : No
    Forced                      : No

    Text #1
    ID                          : 4
    Format                      : PGS
    Muxing mode                 : zlib
    Codec ID                    : S_HDMV/PGS
    Codec ID/Info               : Picture based subtitle format used on BDs/HD-DVDs
    Duration                    : 1 h 46 min
    Bit rate                    : 44.9 kb/s
    Count of elements           : 3330
    Stream size                 : 34.0 MiB (0%)
    Title                       : English-PGS
    Language                    : English
    Default                     : No
    Forced                      : No

    Text #2
    ID                          : 5
    Format                      : PGS
    Muxing mode                 : zlib
    Codec ID                    : S_HDMV/PGS
    Codec ID/Info               : Picture based subtitle format used on BDs/HD-DVDs
    Duration                    : 1 h 54 min
    Bit rate                    : 33.8 kb/s
    Count of elements           : 2628
    Stream size                 : 27.7 MiB (0%)
    Title                       : Spanish-PGS
    Language                    : Spanish
    Default                     : No
    Forced                      : No

    Text #3
    ID                          : 6
    Format                      : PGS
    Muxing mode                 : zlib
    Codec ID                    : S_HDMV/PGS
    Codec ID/Info               : Picture based subtitle format used on BDs/HD-DVDs
    Duration                    : 1 h 54 min
    Bit rate                    : 1 046 b/s
    Count of elements           : 68
    Stream size                 : 879 KiB (0%)
    Title                       : Spanish-FORCED-PGS
    Language                    : Spanish
    Default                     : No
    Forced                      : No

    Text #4
    ID                          : 7
    Format                      : UTF-8
    Codec ID                    : S_TEXT/UTF8
    Codec ID/Info               : UTF-8 Plain Text
    Duration                    : 1 h 47 min
    Bit rate                    : 49 b/s
    Count of elements           : 1357
    Stream size                 : 38.9 KiB (0%)
    Language                    : Spanish
    Default                     : Yes
    Forced                      : No

    Text #5
    ID                          : 8
    Format                      : UTF-8
    Codec ID                    : S_TEXT/UTF8
    Codec ID/Info               : UTF-8 Plain Text
    Duration                    : 1 h 48 min
    Bit rate                    : 1 b/s
    Count of elements           : 34
    Stream size                 : 1.05 KiB (0%)
    Language                    : Spanish
    Default                     : No
    Forced                      : No

    Menu
    00:00:00.000                : en:Chapter 01
    00:04:17.257                : en:Chapter 02
    00:10:57.448                : en:Chapter 03
    00:16:42.876                : en:Chapter 04
    00:22:26.970                : en:Chapter 05
    00:27:34.819                : en:Chapter 06
    00:35:10.775                : en:Chapter 07
    00:41:09.216                : en:Chapter 08
    00:45:59.173                : en:Chapter 09
    00:51:35.634                : en:Chapter 10
    01:00:35.923                : en:Chapter 11
    01:03:30.973                : en:Chapter 12
    01:08:07.249                : en:Chapter 13
    01:13:38.705                : en:Chapter 14
    01:17:14.713                : en:Chapter 15
    01:25:13.525                : en:Chapter 16
    01:30:48.484                : en:Chapter 17
    01:39:34.718                : en:Chapter 18
    01:43:31.371                : en:Chapter 19
    01:48:50.106                : en:Chapter 20

  • Peso: 31.8 GiB

Sinopsis

Film inspirado en el documental «Marwencol» (2010), que narraba la historia real de Mark Hogancamp, un hombre que tras sufrir un terrible asalto estuvo en coma nueve días, tras el cual se despertó con una amnesia completa. Su única terapia fue construir en su jardín unas maquetas con figuras de soldados de II Guerra Mundial…

Ficha técnica

Video trailer de la película

Enlaces de descarga

Rip de Bluray

Descargar Bienvenidos a Marwen (2018) remux 1080p Latino




Aportes de DPeliculasHDmega la pass es:dpeliculashdmega.org Aportes de CinemaniaHD la pass es:cinemaniahdd.com
Guardado en : Comedia , Drama , Fantasía , Remux

Películas relacionadas

  • Ajin: Semi-Humano (2017) REMUX 1080p Latino

    Ajin: Semi-Humano (2017) REMUX 1080p Latino

    2017
    Ajin: Semi-Humano (2017) REMUX 1080p Latino

    1h 50m 2017

    Descargar Ajin: Semi-Humano (2017) REMUX 1080p Latino. En el manga original, aparece una persona inmortal...

    Director: Toru Yamamoto

    Género: Acción

    Actores: Yuki Yamada

  • Zola (2020) HD 1080p Latino

    Zola (2020) HD 1080p Latino

    2020
    Zola (2020) HD 1080p Latino

    1h 26m 2020

    Descargar Zola (2020) HD 1080p Latino. Una camarera accede a acompañar a una bailarina exótica, su...

    Director: Sheri Davani

    Género: Comedia

    Actores: Ts Madison

  • Zola (2020) PLACEBO Full HD 1080p Latino

    Zola (2020) PLACEBO Full HD 1080p Latino

    2020
    Zola (2020) PLACEBO Full HD 1080p Latino

    1h 26m 2020

    Descargar Zola (2020) PLACEBO Full HD 1080p Latino. Una camarera accede a acompañar a una bailarina...

    Director: Sheri Davani

    Género: Comedia

    Actores: Ts Madison

descargar Bienvenidos a Marwen (2018) remux 1080p Latino Full 1080p 1080p gratis, Bienvenidos a Marwen (2018) remux 1080p Latino Full 1080p mega 1 link, Bienvenidos a Marwen (2018) remux 1080p Latino Full 1080p pelicula completa, descargar Bienvenidos a Marwen (2018) remux 1080p Latino Full 1080p gratis en mega.

Bienvenidos a Marwen (2018) remux 1080p Latino pelicula full hd, Bienvenidos a Marwen (2018) remux 1080p Latino mega latino, Bienvenidos a Marwen (2018) remux 1080p Latino 4k latino, Bienvenidos a Marwen (2018) remux 1080p Latino pelicula completa, Bienvenidos a Marwen (2018) remux 1080p Latino descargar gratis, descargar Bienvenidos a Marwen (2018) remux 1080p Latino pelicula latino, Bienvenidos a Marwen (2018) remux 1080p Latino 1 link mega, Bienvenidos a Marwen (2018) remux 1080p Latino 1 link google drive, Bienvenidos a Marwen (2018) remux 1080p Latino hd 1080p latino.
Comentarios 0