×

¿Problemas para descargar con Mozilla, EDGE? Deshabilita la opción "Abrir vinculos en una pestaña nueva" tal como lo muestra ésta imagen.

Bienvenidos a Marwen (2018) Full 1080p Latino

1.249 vistas

Información de Bienvenidos a Marwen (2018) Full 1080p Latino

bienvenidos a marwen 51003 poster

Datos de la película

  • Calidad: Full 1080p
  • Audio: Se especifica abajo de la Sinopsis
  • Subtitulos: Español Latino PGS - Ingles PGS
  • Resolución: 1920x1080p
  • Formato: MKV
  • Codec: H.264
  • Encoder: CinefiloCool
  • Mediainfo: Clic para Mostrar Datos Ver
  • Bienvenidos A Marwen (2018) Full 1080p Latino[PLACEBO].mkv
    Format                      : Matroska
    Format version              : Version 4
    File size                   : 5.71 GiB
    Duration                    : 1 h 55 min
    Overall bit rate mode       : Variable
    Overall bit rate            : 7 051 kb/s
    Movie name                  : CinemaniaHDD.Net
    Encoded date                : UTC 2019-04-02 16:40:10
    Writing application         : mkvmerge v30.1.0 ('Forever And More') 64-bit
    Writing library             : libebml v1.3.6 + libmatroska v1.4.9 / Lavf58.20.100

    Video
    ID                          : 1
    Format                      : AVC
    Format/Info                 : Advanced Video Codec
    Format profile              : High@L4.1
    Format settings             : CABAC / 4 Ref Frames
    Format settings, CABAC      : Yes
    Format settings, ReFrames   : 4 frames
    Codec ID                    : V_MPEG4/ISO/AVC
    Duration                    : 1 h 55 min
    Bit rate                    : 3 275 kb/s
    Width                       : 1 920 pixels
    Height                      : 1 080 pixels
    Display aspect ratio        : 16:9
    Frame rate mode             : Constant
    Frame rate                  : 23.976 (24000/1001) FPS
    Color space                 : YUV
    Chroma subsampling          : 4:2:0
    Bit depth                   : 8 bits
    Scan type                   : Progressive
    Bits/(Pixel*Frame)          : 0.066
    Stream size                 : 2.65 GiB (46%)
    Title                       : Full HD1080p [Bluray]
    Writing library             : x264 core 157 r2935 545de2f
    Encoding settings           : cabac=1 / ref=4 / deblock=1:0:0 / analyse=0x3:0x133 / me=tesa / subme=11 / psy=1 / psy_rd=1.00:0.00 / mixed_ref=1 / me_range=24 / chroma_me=1 / trellis=2 / 8x8dct=1 / cqm=0 / deadzone=21,11 / fast_pskip=0 / chroma_qp_offset=-2 / threads=34 / lookahead_threads=8 / sliced_threads=0 / nr=0 / decimate=1 / interlaced=0 / bluray_compat=0 / constrained_intra=0 / bframes=16 / b_pyramid=2 / b_adapt=2 / b_bias=0 / direct=3 / weightb=1 / open_gop=0 / weightp=2 / keyint=240 / keyint_min=24 / scenecut=40 / intra_refresh=0 / rc_lookahead=60 / rc=crf / mbtree=1 / crf=19.0 / qcomp=0.60 / qpmin=0 / qpmax=69 / qpstep=4 / vbv_maxrate=62500 / vbv_bufsize=78125 / crf_max=0.0 / nal_hrd=none / filler=0 / ip_ratio=1.40 / aq=1:1.00
    Default                     : Yes
    Forced                      : No
    Color range                 : Limited
    Color primaries             : BT.709
    Transfer characteristics    : BT.709
    Matrix coefficients         : BT.709

    Audio #1
    ID                          : 2
    Format                      : AC-3
    Format/Info                 : Audio Coding 3
    Commercial name             : Dolby Digital
    Codec ID                    : A_AC3
    Duration                    : 1 h 55 min
    Bit rate mode               : Constant
    Bit rate                    : 640 kb/s
    Channel(s)                  : 6 channels
    Channel layout              : L R C LFE Ls Rs
    Sampling rate               : 48.0 kHz
    Frame rate                  : 31.250 FPS (1536 SPF)
    Bit depth                   : 16 bits
    Compression mode            : Lossy
    Stream size                 : 531 MiB (9%)
    Title                       : AC3_5.1_Bluray_Esp
    Language                    : Spanish
    Service kind                : Complete Main
    Default                     : Yes
    Forced                      : Yes

    Audio #2
    ID                          : 3
    Format                      : MLP FBA
    Format/Info                 : Meridian Lossless Packing FBA
    Commercial name             : Dolby TrueHD
    Codec ID                    : A_TRUEHD
    Duration                    : 1 h 55 min
    Bit rate mode               : Variable
    Bit rate                    : 3 026 kb/s
    Maximum bit rate            : 4 734 kb/s
    Channel(s)                  : 6 channels
    Channel layout              : L R C LFE Ls Rs
    Sampling rate               : 48.0 kHz
    Frame rate                  : 1 200.000 FPS (40 SPF)
    Compression mode            : Lossless
    Stream size                 : 2.45 GiB (43%)
    Title                       : THD_5.1_Bluray_Eng
    Language                    : English
    Default                     : No
    Forced                      : No

    Text #1
    ID                          : 4
    Format                      : PGS
    Muxing mode                 : zlib
    Codec ID                    : S_HDMV/PGS
    Codec ID/Info               : Picture based subtitle format used on BDs/HD-DVDs
    Duration                    : 1 h 54 min
    Bit rate                    : 1 046 b/s
    Count of elements           : 68
    Stream size                 : 879 KiB (0%)
    Title                       : Sub_Forzados [PGS]
    Language                    : Spanish
    Default                     : Yes
    Forced                      : Yes

    Text #2
    ID                          : 5
    Format                      : PGS
    Muxing mode                 : zlib
    Codec ID                    : S_HDMV/PGS
    Codec ID/Info               : Picture based subtitle format used on BDs/HD-DVDs
    Duration                    : 1 h 54 min
    Bit rate                    : 33.8 kb/s
    Count of elements           : 2628
    Stream size                 : 27.7 MiB (0%)
    Title                       : Sub_Esp [PGS]
    Language                    : Spanish
    Default                     : No
    Forced                      : No

    Text #3
    ID                          : 6
    Format                      : PGS
    Muxing mode                 : zlib
    Codec ID                    : S_HDMV/PGS
    Codec ID/Info               : Picture based subtitle format used on BDs/HD-DVDs
    Duration                    : 1 h 46 min
    Bit rate                    : 44.9 kb/s
    Count of elements           : 3330
    Stream size                 : 34.0 MiB (1%)
    Title                       : Sub_Eng [PGS]
    Language                    : English
    Default                     : No
    Forced                      : No

    Menu
    00:00:00.000                : :Chapter 1
    00:04:17.257                : :Chapter 2
    00:10:57.574                : :Chapter 3
    00:16:42.877                : :Chapter 4
    00:22:26.971                : :Chapter 5
    00:27:34.820                : :Chapter 6
    00:35:10.900                : :Chapter 7
    00:41:09.217                : :Chapter 8
    00:45:59.298                : :Chapter 9
    00:51:35.759                : :Chapter 10
    01:00:35.924                : :Chapter 11
    01:03:30.974                : :Chapter 12
    01:08:07.250                : :Chapter 13
    01:13:38.706                : :Chapter 14
    01:17:14.839                : :Chapter 15
    01:25:13.650                : :Chapter 16
    01:30:48.485                : :Chapter 17
    01:39:34.719                : :Chapter 18
    01:43:31.372                : :Chapter 19
    01:48:50.107                : :Chapter 20

  • Peso: 5.71 GiB

Sinopsis

Descargar Bienvenidos a Marwen (2018) Full 1080p Latino, Mega, Google Drive. Film inspirado en el documental «Marwencol» (2010), que narraba la historia real de Mark Hogancamp, un hombre que tras sufrir un terrible asalto estuvo en coma nueve días, tras el cual se despertó con una amnesia completa. Su única terapia fue construir en su jardín unas maquetas con figuras de soldados de II Guerra Mundial…

Audio Español Latino AC3 5.1 Bluray – Ingles TrueHD 5.1 Bluray

Ficha técnica

Video trailer de la película

Enlaces de descarga

Rip de Bluray

Descargar Bienvenidos a Marwen (2018) Full 1080p Latino




Aportes de DPeliculasHDmega la pass es:dpeliculashdmega.org Aportes de CinemaniaHD la pass es:cinemaniahdd.com

Películas relacionadas

  • Zola (2020) HD 1080p Latino

    Zola (2020) HD 1080p Latino

    2020
    Zola (2020) HD 1080p Latino

    1h 26m 2020

    Descargar Zola (2020) HD 1080p Latino. Una camarera accede a acompañar a una bailarina exótica, su...

    Director: Sheri Davani

    Género: Comedia

    Actores: Ts Madison

  • Zola (2020) PLACEBO Full HD 1080p Latino

    Zola (2020) PLACEBO Full HD 1080p Latino

    2020
    Zola (2020) PLACEBO Full HD 1080p Latino

    1h 26m 2020

    Descargar Zola (2020) PLACEBO Full HD 1080p Latino. Una camarera accede a acompañar a una bailarina...

    Director: Sheri Davani

    Género: Comedia

    Actores: Ts Madison

descargar Bienvenidos a Marwen (2018) Full 1080p Latino Full 1080p 1080p gratis, Bienvenidos a Marwen (2018) Full 1080p Latino Full 1080p mega 1 link, Bienvenidos a Marwen (2018) Full 1080p Latino Full 1080p pelicula completa, descargar Bienvenidos a Marwen (2018) Full 1080p Latino Full 1080p gratis en mega.

Bienvenidos a Marwen (2018) Full 1080p Latino pelicula full hd, Bienvenidos a Marwen (2018) Full 1080p Latino mega latino, Bienvenidos a Marwen (2018) Full 1080p Latino 4k latino, Bienvenidos a Marwen (2018) Full 1080p Latino pelicula completa, Bienvenidos a Marwen (2018) Full 1080p Latino descargar gratis, descargar Bienvenidos a Marwen (2018) Full 1080p Latino pelicula latino, Bienvenidos a Marwen (2018) Full 1080p Latino 1 link mega, Bienvenidos a Marwen (2018) Full 1080p Latino 1 link google drive, Bienvenidos a Marwen (2018) Full 1080p Latino hd 1080p latino.
Comentarios 0