Beyond The Sky (2018) Full 1080p Subtitulado

1.945 vistas
1 estrella2 estrellas3 estrellas4 estrellas5 estrellas (1 votos, promedio: 5,00 de 5)
Cargando…

Información de Beyond The Sky (2018) Full 1080p Subtitulado

Datos de la película

  • Calidad: Full 1080p
  • Audio: Ingles DTS 5.1 BLURAY
  • Subtitulos: Español Latino PGS - Ingles PGS
  • Resolución: 1920x1080p
  • Formato: MKV
  • Codec: H.264
  • Encoder: Dracarys
  • Mediainfo: Clic para Mostrar Datos Ver
  • Format                                   : Matroska
    Format version                           : Version 4 / Version 2
    File size                                : 3.06 GiB
    Duration                                 : 1 h 22 min
    Overall bit rate                         : 5 347 kb/s
    Movie name                               : CinemaniaHDD.net
    Encoded date                             : UTC 2018-11-22 00:02:20 / UTC 2018-11-21T18:43:41Z
    Writing application                      : mkvmerge v15.0.0 ('Duel with the Devil') 64-bit
    Writing library                          : libebml v1.3.5 + libmatroska v1.4.5 / Lavf57.7.2

    Video
    ID                                       : 1
    Format                                   : AVC
    Format/Info                              : Advanced Video Codec
    Format profile                           : High@L4.1
    Format settings                          : CABAC / 4 Ref Frames
    Format settings, CABAC                   : Yes
    Format settings, RefFrames               : 4 frames
    Codec ID                                 : V_MPEG4/ISO/AVC
    Duration                                 : 1 h 22 min
    Bit rate                                 : 3 731 kb/s
    Width                                    : 1 920 pixels
    Height                                   : 1 080 pixels
    Display aspect ratio                     : 16:9
    Frame rate mode                          : Constant
    Frame rate                               : 23.976 (24000/1001) FPS
    Color space                              : YUV
    Chroma subsampling                       : 4:2:0
    Bit depth                                : 8 bits
    Scan type                                : Progressive
    Bits/(Pixel*Frame)                       : 0.075
    Stream size                              : 2.14 GiB (70%)
    Writing library                          : x264 core 148 r2708 86b7198
    Encoding settings                        : cabac=1 / ref=4 / deblock=1:0:0 / analyse=0x3:0x133 / me=esa / subme=10 / psy=1 / psy_rd=1.00:0.00 / mixed_ref=1 / me_range=24 / chroma_me=1 / trellis=2 / 8x8dct=1 / cqm=0 / deadzone=21,11 / fast_pskip=1 / chroma_qp_offset=-2 / threads=34 / lookahead_threads=5 / sliced_threads=0 / nr=0 / decimate=1 / interlaced=0 / bluray_compat=0 / constrained_intra=0 / bframes=8 / b_pyramid=2 / b_adapt=2 / b_bias=0 / direct=3 / weightb=1 / open_gop=0 / weightp=2 / keyint=240 / keyint_min=24 / scenecut=40 / intra_refresh=0 / rc_lookahead=60 / rc=crf / mbtree=1 / crf=20.0 / qcomp=0.60 / qpmin=0 / qpmax=69 / qpstep=4 / vbv_maxrate=62500 / vbv_bufsize=78125 / crf_max=0.0 / nal_hrd=none / filler=0 / ip_ratio=1.40 / aq=1:1.00
    Language                                 : English
    Default                                  : Yes
    Forced                                   : No
    Color range                              : Limited
    Color primaries                          : BT.709
    Transfer characteristics                 : BT.709
    Matrix coefficients                      : BT.709
    Statistics Tags Issue                    : mkvmerge v15.0.0 ('Duel with the Devil') 64-bit 2018-11-22 00:02:20 / mkvmerge v15.0.0 ('Duel with the Devil') 64-bit 2018-11-22 00:02:20 / UTC 2018-11-21T18:43:41Z
    FromStats_BitRate                        : 3810179
    FromStats_Duration                       : 01:22:00.833000000
    FromStats_FrameCount                     : 117982
    FromStats_StreamSize                     : 2343657413

    Audio
    ID                                       : 2
    Format                                   : DTS
    Format/Info                              : Digital Theater Systems
    Mode                                     : 16
    Format settings, Endianness              : Big
    Codec ID                                 : A_DTS
    Duration                                 : 1 h 22 min
    Bit rate mode                            : Constant
    Bit rate                                 : 1 509 kb/s
    Channel(s)                               : 6 channels
    Channel positions                        : Front: L C R, Side: L R, LFE
    Sampling rate                            : 48.0 kHz
    Frame rate                               : 93.750 FPS (512 SPF)
    Bit depth                                : 24 bits
    Compression mode                         : Lossy
    Stream size                              : 885 MiB (28%)
    Language                                 : English
    Default                                  : Yes
    Forced                                   : No
    Statistics Tags Issue                    : mkvmerge v15.0.0 ('Duel with the Devil') 64-bit 2018-11-22 00:02:20 / mkvmerge v15.0.0 ('Duel with the Devil') 64-bit 2018-11-22 00:02:20 / UTC 2018-11-21T18:43:41Z
    FromStats_BitRate                        : 1508999
    FromStats_Duration                       : 01:21:59.819000000
    FromStats_FrameCount                     : 461233
    FromStats_StreamSize                     : 928000796

    Text #1
    ID                                       : 3
    Format                                   : PGS
    Muxing mode                              : zlib
    Codec ID                                 : S_HDMV/PGS
    Codec ID/Info                            : Picture based subtitle format used on BDs/HD-DVDs
    Language                                 : English
    Default                                  : No
    Forced                                   : No
    Statistics Tags Issue                    : mkvmerge v15.0.0 ('Duel with the Devil') 64-bit 2018-11-22 00:02:20 / mkvmerge v15.0.0 ('Duel with the Devil') 64-bit 2018-11-22 00:02:20 / UTC 2018-11-21T18:43:41Z
    FromStats_BitRate                        : 49800
    FromStats_Duration                       : 01:18:46.305000000
    FromStats_FrameCount                     : 2495
    FromStats_StreamSize                     : 29421330

    Text #2
    ID                                       : 4
    Format                                   : PGS
    Muxing mode                              : zlib
    Codec ID                                 : S_HDMV/PGS
    Codec ID/Info                            : Picture based subtitle format used on BDs/HD-DVDs
    Language                                 : Spanish
    Default                                  : Yes
    Forced                                   : Yes
    Statistics Tags Issue                    : mkvmerge v15.0.0 ('Duel with the Devil') 64-bit 2018-11-22 00:02:20 / mkvmerge v15.0.0 ('Duel with the Devil') 64-bit 2018-11-22 00:02:20 / UTC 2018-11-21T18:43:41Z
    FromStats_BitRate                        : 44636
    FromStats_Duration                       : 01:18:46.305000000
    FromStats_FrameCount                     : 2304
    FromStats_StreamSize                     : 26370472

    Menu
    00:00:00.000                             : :Chapter 1
    00:11:54.756                             : :Chapter 2
    00:26:04.480                             : :Chapter 3
    00:33:00.770                             : :Chapter 4
    00:42:12.655                             : :Chapter 5
    00:53:10.396                             : :Chapter 6
    01:05:50.029                             : :Chapter 7
    01:19:17.336                             : :Chapter 8

     

  • Peso: 3.06 GiB

Sinopsis

Un documentalista viaja a una convención de OVNIS en Nuevo México, donde conoce a un artista local con un oscuro secreto. A medida que siguen un rastro de pistas, descubren avistamientos perturbadores y cuestionan todo lo que creen cuando se sumergen en la cultura enigmática de los pueblos indios.

Ficha técnica

Video trailer de la película

Enlaces de descarga

Rip de Bluray

Descargar Beyond The Sky (2018) Full 1080p Subtitulado




Aportes de DPeliculasHDmega la pass es:dpeliculashdmega.org Aportes de CinemaniaHD la pass es:cinemaniahdd.com

Películas relacionadas

  • La casa con un reloj en sus paredes (2018) 1080p Latino

    2018
    La casa con un reloj en sus paredes (2018) 1080p Latino

    5.0 1h 45m 2018

    Descargar La casa con un reloj en sus paredes (2018) 1080p Latino, Mega, Google Drive, Torrent. La historia...

    Director: Eli Roth

    Género: Familia

    Actores: Vanessa Anne Williams

  • Godzilla (2014) 1080p Latino

    2014
    Godzilla (2014) 1080p Latino

    0.0 2h 3m 2014

    Descargar Godzilla (2014) 1080p Latino, Mega, Google Drive, Torrent. Gareth Edwards dirige este "reboot",...

    Director: Jessica Clothier

    Género: Acción

    Actores: Yuki Morita

  • Godzilla (2014) Full 1080p Latino

    2014
    Godzilla (2014) Full 1080p Latino

    4.2 2h 3m 2014

    Descargar Godzilla (2014) Full 1080p Latino, Mega, Google Drive, Torrent. Gareth Edwards dirige este...

    Director: Jessica Clothier

    Género: Acción

    Actores: Yuki Morita

Comentarios 3
  • Amiel - 01 diciembre, 2018

    no esta funcionando la opcion de descarga por torrent

    • dpelis - 02 diciembre, 2018

      que error ?

  • Omar Enrique - 22 noviembre, 2018

    Muchisimas gracias, se ve interesante. 🙂