×

¿Problemas para descargar con Mozilla, EDGE? Deshabilita la opción "Abrir vinculos en una pestaña nueva" tal como lo muestra ésta imagen.

Beverly Hills Cop 2 (1987) (Remastered) REMUX 1080p Latino – CMHDD

226 vistas

Información de Beverly Hills Cop 2 (1987) (Remastered) REMUX 1080p Latino – CMHDD

Datos de la película

  • Calidad: Full 1080p
  • Audio: Español Latino AC3 2.0 BLURAY - Ingles DTS 5.1 BLURAY
  • Subtitulos: Español Latino SRT- FORZADOS SRT
  • Resolución: 1920x1080p
  • Formato: MKV
  • Codec: H.264
  • Encoder: Dracarys
  • Mediainfo: Clic para Mostrar Datos Ver
  • Format                      : Matroska
    Format version              : Version 4
    File size                   : 25.2 GiB
    Duration                    : 1 h 42 min
    Overall bit rate mode       : Variable
    Overall bit rate            : 35.0 Mb/s
    Movie name                  : Beverly Hills Cop 2 (1987) (Remastered) REMUX 1080p Latino - CMHDD
    Encoded date                : UTC 2020-10-12 20:26:01
    Writing application         : mkvmerge v51.0.0 ('I Wish') 64-bit
    Writing library             : libebml v1.4.0 + libmatroska v1.6.2

    Video
    ID                          : 1
    Format                      : AVC
    Format/Info                 : Advanced Video Codec
    Format profile              : High@L4.1
    Format settings             : CABAC / 4 Ref Frames
    Format settings, CABAC      : Yes
    Format settings, Reference  : 4 frames
    Codec ID                    : V_MPEG4/ISO/AVC
    Duration                    : 1 h 42 min
    Bit rate mode               : Variable
    Bit rate                    : 32.6 Mb/s
    Maximum bit rate            : 35.0 Mb/s
    Width                       : 1 920 pixels
    Height                      : 1 080 pixels
    Display aspect ratio        : 16:9
    Frame rate mode             : Constant
    Frame rate                  : 23.976 (24000/1001) FPS
    Color space                 : YUV
    Chroma subsampling          : 4:2:0
    Bit depth                   : 8 bits
    Scan type                   : Progressive
    Bits/(Pixel*Frame)          : 0.656
    Stream size                 : 23.5 GiB (93%)
    Default                     : Yes
    Forced                      : No

    Audio #1
    ID                          : 2
    Format                      : AC-3
    Format/Info                 : Audio Coding 3
    Commercial name             : Dolby Digital
    Codec ID                    : A_AC3
    Duration                    : 1 h 42 min
    Bit rate mode               : Constant
    Bit rate                    : 224 kb/s
    Channel(s)                  : 2 channels
    Channel layout              : L R
    Sampling rate               : 48.0 kHz
    Frame rate                  : 31.250 FPS (1536 SPF)
    Compression mode            : Lossy
    Stream size                 : 165 MiB (1%)
    Language                    : Spanish
    Service kind                : Complete Main
    Default                     : Yes
    Forced                      : No

    Audio #2
    ID                          : 3
    Format                      : DTS XLL
    Format/Info                 : Digital Theater Systems
    Commercial name             : DTS-HD Master Audio
    Codec ID                    : A_DTS
    Duration                    : 1 h 42 min
    Bit rate mode               : Variable
    Bit rate                    : 2 109 kb/s
    Channel(s)                  : 6 channels
    Channel layout              : C L R Ls Rs LFE
    Sampling rate               : 48.0 kHz
    Frame rate                  : 93.750 FPS (512 SPF)
    Bit depth                   : 24 bits
    Compression mode            : Lossless
    Stream size                 : 1.52 GiB (6%)
    Language                    : English
    Default                     : No
    Forced                      : No

    Text #1
    ID                          : 4
    Format                      : PGS
    Muxing mode                 : zlib
    Codec ID                    : S_HDMV/PGS
    Codec ID/Info               : Picture based subtitle format used on BDs/HD-DVDs
    Duration                    : 1 h 42 min
    Bit rate                    : 51.2 kb/s
    Count of elements           : 2582
    Stream size                 : 37.4 MiB (0%)
    Language                    : Spanish
    Default                     : No
    Forced                      : No

    Text #2
    ID                          : 5
    Format                      : PGS
    Muxing mode                 : zlib
    Codec ID                    : S_HDMV/PGS
    Codec ID/Info               : Picture based subtitle format used on BDs/HD-DVDs
    Duration                    : 1 h 41 min
    Bit rate                    : 513 b/s
    Count of elements           : 24
    Stream size                 : 381 KiB (0%)
    Language                    : Spanish
    Default                     : No
    Forced                      : No

    Text #3
    ID                          : 6
    Format                      : UTF-8
    Codec ID                    : S_TEXT/UTF8
    Codec ID/Info               : UTF-8 Plain Text
    Duration                    : 1 h 42 min
    Bit rate                    : 62 b/s
    Count of elements           : 1291
    Stream size                 : 46.4 KiB (0%)
    Language                    : Spanish
    Default                     : No
    Forced                      : No

    Text #4
    ID                          : 7
    Format                      : UTF-8
    Codec ID                    : S_TEXT/UTF8
    Codec ID/Info               : UTF-8 Plain Text
    Duration                    : 1 h 41 min
    Bit rate                    : 0 b/s
    Count of elements           : 12
    Stream size                 : 368 Bytes (0%)
    Language                    : Spanish
    Default                     : Yes
    Forced                      : No

  • Peso: 25.2 GiB

Sinopsis

El detective de Detroit Axel Foley se entera por las noticias de la tele de que su amigo Andrew Bogomil, capitán de la policía de Beverly Hills, ha sido tiroteado por una mujer. Cuando va a visitarlo al hospital, conoce a su hija Jan. Con la ayuda de dos agentes amigos suyos intenta localizar a la culpable, a pesar de que el jefe de policía Harold Lutz ha intentado encontrar alguna razón para despedir a los dos agentes. Axel y sus amigos descubren que los «atracos del alfabeto», que han tenido lugar en la zona, son obra del traficante de armas Maxwell Dent, que ha enviado a su prometida Karla Fry a matar a Bogomil porque éste le iba siguiendo los pasos.

Ficha técnica

Video trailer de la película

Enlaces de descarga

Rip de Bluray

Descargar Beverly Hills Cop 2 (1987) (Remastered) REMUX 1080p Latino – CMHDD


Aportes de DPeliculasHDmega la pass es:dpeliculashdmega.org Aportes de CinemaniaHD la pass es:cinemaniahdd.com
Guardado en : Acción , Comedia , Crimen

Películas relacionadas

  • DC Liga De Supermascotas (2022) HD 1080p Latino

    DC Liga De Supermascotas (2022) HD 1080p Latino

    2022
    DC Liga De Supermascotas (2022) HD 1080p Latino

    1h 45m 2022

    Descargar DC Liga De Supermascotas (2022) HD 1080p Latino. Krypto el Superperro y Superman son amigos...

    Director: Sam Levine

    Género: Acción

    Actores: Yvette Nicole Brown

  • Rick and Morty (2022) Temporada 6 WEB-DL 1080p Latino

    Rick and Morty (2022) Temporada 6 WEB-DL 1080p Latino

    2013
    Rick and Morty (2022) Temporada 6 WEB-DL 1080p Latino

    0h 22m 2013

    Comedia animada que narra las aventuras de un científico loco Rick Sánchez, que regresa después de...

    Director: Justin Roiland

    Género: Action & Adventure

    Actores: Spencer Grammer

  • Tremors (1990) REMUX 4K HDR Latino – CMHDD

    Tremors (1990) REMUX 4K HDR Latino – CMHDD

    1990
    Tremors (1990) REMUX 4K HDR Latino – CMHDD

    1h 35m 1990

    En Perfección, un pequeño pueblo al borde del desierto de Nevada, algo parece suceder debajo de la...

    Director: Susan Bierbaum

    Género: Acción

    Actores: Victor Wong

descargar Beverly Hills Cop 2 (1987) (Remastered) REMUX 1080p Latino – CMHDD Full 1080p 1080p gratis, Beverly Hills Cop 2 (1987) (Remastered) REMUX 1080p Latino – CMHDD Full 1080p mega 1 link, Beverly Hills Cop 2 (1987) (Remastered) REMUX 1080p Latino – CMHDD Full 1080p pelicula completa, descargar Beverly Hills Cop 2 (1987) (Remastered) REMUX 1080p Latino – CMHDD Full 1080p gratis en mega.

Beverly Hills Cop 2 (1987) (Remastered) REMUX 1080p Latino – CMHDD pelicula full hd, Beverly Hills Cop 2 (1987) (Remastered) REMUX 1080p Latino – CMHDD mega latino, Beverly Hills Cop 2 (1987) (Remastered) REMUX 1080p Latino – CMHDD 4k latino, Beverly Hills Cop 2 (1987) (Remastered) REMUX 1080p Latino – CMHDD pelicula completa, Beverly Hills Cop 2 (1987) (Remastered) REMUX 1080p Latino – CMHDD descargar gratis, descargar Beverly Hills Cop 2 (1987) (Remastered) REMUX 1080p Latino – CMHDD pelicula latino, Beverly Hills Cop 2 (1987) (Remastered) REMUX 1080p Latino – CMHDD 1 link mega, Beverly Hills Cop 2 (1987) (Remastered) REMUX 1080p Latino – CMHDD 1 link google drive, Beverly Hills Cop 2 (1987) (Remastered) REMUX 1080p Latino – CMHDD hd 1080p latino.
Comentarios 0