×

¿Problemas para descargar con Mozilla, EDGE? Deshabilita la opción "Abrir vinculos en una pestaña nueva" tal como lo muestra ésta imagen.

Beverly Hills Cop (1984) (Remastered) REMUX 1080p Latino – CMHDD

279 vistas

Información de Beverly Hills Cop (1984) (Remastered) REMUX 1080p Latino – CMHDD

Datos de la película

  • Calidad:
  • Audio: Español Latino AC3 5.1 BLURAY - Ingles DTS 5.1 BLURAY
  • Subtitulos: Español Latino SRT
  • Resolución: 1920x1080p
  • Formato: MKV
  • Codec: H.264
  • Encoder: Dracarys
  • Mediainfo: Clic para Mostrar Datos Ver
  • Format                      : Matroska
    Format version              : Version 4
    File size                   : 27.4 GiB
    Duration                    : 1 h 45 min
    Overall bit rate mode       : Variable
    Overall bit rate            : 37.4 Mb/s
    Movie name                  : Beverly Hills Cop (1984) (Remastered) REMUX 1080p Latino - CMHDD
    Encoded date                : UTC 2020-10-12 20:24:06
    Writing application         : mkvmerge v51.0.0 ('I Wish') 64-bit
    Writing library             : libebml v1.4.0 + libmatroska v1.6.2

    Video
    ID                          : 1
    Format                      : AVC
    Format/Info                 : Advanced Video Codec
    Format profile              : High@L4.1
    Format settings             : CABAC / 4 Ref Frames
    Format settings, CABAC      : Yes
    Format settings, Reference  : 4 frames
    Codec ID                    : V_MPEG4/ISO/AVC
    Duration                    : 1 h 45 min
    Bit rate mode               : Variable
    Bit rate                    : 32.7 Mb/s
    Maximum bit rate            : 35.0 Mb/s
    Width                       : 1 920 pixels
    Height                      : 1 080 pixels
    Display aspect ratio        : 16:9
    Frame rate mode             : Constant
    Frame rate                  : 23.976 (24000/1001) FPS
    Color space                 : YUV
    Chroma subsampling          : 4:2:0
    Bit depth                   : 8 bits
    Scan type                   : Progressive
    Bits/(Pixel*Frame)          : 0.659
    Stream size                 : 24.0 GiB (88%)
    Default                     : Yes
    Forced                      : No

    Audio #1
    ID                          : 2
    Format                      : AC-3
    Format/Info                 : Audio Coding 3
    Commercial name             : Dolby Digital
    Codec ID                    : A_AC3
    Duration                    : 1 h 45 min
    Bit rate mode               : Constant
    Bit rate                    : 640 kb/s
    Channel(s)                  : 6 channels
    Channel layout              : L R C LFE Ls Rs
    Sampling rate               : 48.0 kHz
    Frame rate                  : 31.250 FPS (1536 SPF)
    Compression mode            : Lossy
    Delay relative to video     : -8 ms
    Stream size                 : 481 MiB (2%)
    Language                    : Spanish
    Service kind                : Complete Main
    Default                     : Yes
    Forced                      : No

    Audio #2
    ID                          : 3
    Format                      : DTS XLL
    Format/Info                 : Digital Theater Systems
    Commercial name             : DTS-HD Master Audio
    Codec ID                    : A_DTS
    Duration                    : 1 h 45 min
    Bit rate mode               : Variable
    Bit rate                    : 3 965 kb/s
    Channel(s)                  : 6 channels
    Channel layout              : C L R Ls Rs LFE
    Sampling rate               : 48.0 kHz
    Frame rate                  : 93.750 FPS (512 SPF)
    Bit depth                   : 24 bits
    Compression mode            : Lossless
    Stream size                 : 2.91 GiB (11%)
    Language                    : English
    Default                     : No
    Forced                      : No

    Text #1
    ID                          : 4
    Format                      : PGS
    Muxing mode                 : zlib
    Codec ID                    : S_HDMV/PGS
    Codec ID/Info               : Picture based subtitle format used on BDs/HD-DVDs
    Duration                    : 1 h 40 min
    Bit rate                    : 53.7 kb/s
    Count of elements           : 2647
    Stream size                 : 38.5 MiB (0%)
    Language                    : Spanish
    Default                     : No
    Forced                      : No

    Text #2
    ID                          : 5
    Format                      : UTF-8
    Codec ID                    : S_TEXT/UTF8
    Codec ID/Info               : UTF-8 Plain Text
    Duration                    : 1 h 40 min
    Bit rate                    : 64 b/s
    Count of elements           : 1322
    Stream size                 : 47.3 KiB (0%)
    Language                    : Spanish
    Default                     : No
    Forced                      : No

  • Peso: 27.4 GiB

Sinopsis

Axel Foley es un impetuoso e inteligente detective de Detroit que sigue la pista del asesino de un amigo suyo hasta los barrios más elegantes de Beverly Hills. Pero antes de que Axel logre su objetivo, va a verse involucrado en una red internacional de contrabandistas y traficantes de droga.

Ficha técnica

Video trailer de la película

Enlaces de descarga

Rip de Bluray

Descargar Beverly Hills Cop (1984) (Remastered) REMUX 1080p Latino – CMHDD


Aportes de DPeliculasHDmega la pass es:dpeliculashdmega.org Aportes de CinemaniaHD la pass es:cinemaniahdd.com
Guardado en : Acción , Comedia , Crimen

Películas relacionadas

descargar Beverly Hills Cop (1984) (Remastered) REMUX 1080p Latino – CMHDD 1080p gratis, Beverly Hills Cop (1984) (Remastered) REMUX 1080p Latino – CMHDD mega 1 link, Beverly Hills Cop (1984) (Remastered) REMUX 1080p Latino – CMHDD pelicula completa, descargar Beverly Hills Cop (1984) (Remastered) REMUX 1080p Latino – CMHDD gratis en mega.

Beverly Hills Cop (1984) (Remastered) REMUX 1080p Latino – CMHDD pelicula full hd, Beverly Hills Cop (1984) (Remastered) REMUX 1080p Latino – CMHDD mega latino, Beverly Hills Cop (1984) (Remastered) REMUX 1080p Latino – CMHDD 4k latino, Beverly Hills Cop (1984) (Remastered) REMUX 1080p Latino – CMHDD pelicula completa, Beverly Hills Cop (1984) (Remastered) REMUX 1080p Latino – CMHDD descargar gratis, descargar Beverly Hills Cop (1984) (Remastered) REMUX 1080p Latino – CMHDD pelicula latino, Beverly Hills Cop (1984) (Remastered) REMUX 1080p Latino – CMHDD 1 link mega, Beverly Hills Cop (1984) (Remastered) REMUX 1080p Latino – CMHDD 1 link google drive, Beverly Hills Cop (1984) (Remastered) REMUX 1080p Latino – CMHDD hd 1080p latino.
Comentarios 0