×

¿Problemas para descargar con Mozilla, EDGE? Deshabilita la opción "Abrir vinculos en una pestaña nueva" tal como lo muestra ésta imagen.

Better Off Dead (1985) REMUX 1080p Latino – CMHDD

248 vistas

Información de Better Off Dead (1985) REMUX 1080p Latino – CMHDD

Datos de la película

  • Calidad: Full 1080p
  • Audio: Español Latino DTS 2.0 BLURAY - Ingles DTS 5.1 BLURAY
  • Subtitulos: Español Latino PGS
  • Resolución: 1920x1080p
  • Formato: MKV
  • Codec: H.264
  • Encoder: Dracarys
  • Mediainfo: Clic para Mostrar Datos Ver
  • Format                      : Matroska
    Format version              : Version 4
    File size                   : 19.6 GiB
    Duration                    : 1 h 36 min
    Overall bit rate mode       : Variable
    Overall bit rate            : 29.0 Mb/s
    Movie name                  : Better Off Dead (1985) REMUX 1080p Latino - CMHDD
    Encoded date                : UTC 2023-04-06 02:15:58
    Writing application         : mkvmerge v47.0.0 ('Black Flag') 64-bit
    Writing library             : libebml v1.3.10 + libmatroska v1.5.2

    Video
    ID                          : 1
    ID in the original source m : 4113 (0x1011)
    Format                      : VC-1
    Format profile              : Advanced@L3
    Codec ID                    : V_MS/VFW/FOURCC / WVC1
    Codec ID/Hint               : Microsoft
    Duration                    : 1 h 36 min
    Bit rate                    : 22.0 Mb/s
    Width                       : 1 920 pixels
    Height                      : 1 080 pixels
    Display aspect ratio        : 16:9
    Frame rate mode             : Constant
    Frame rate                  : 23.976 (24000/1001) FPS
    Color space                 : YUV
    Chroma subsampling          : 4:2:0
    Bit depth                   : 8 bits
    Scan type                   : Progressive
    Compression mode            : Lossy
    Bits/(Pixel*Frame)          : 0.443
    Stream size                 : 14.9 GiB (76%)
    Default                     : Yes
    Forced                      : No
    Original source medium      : Blu-ray

    Audio #1
    ID                          : 2
    ID in the original source m : 4352 (0x1100)
    Format                      : DTS XLL
    Format/Info                 : Digital Theater Systems
    Commercial name             : DTS-HD Master Audio
    Codec ID                    : A_DTS
    Duration                    : 1 h 36 min
    Bit rate mode               : Variable
    Bit rate                    : 4 100 kb/s
    Channel(s)                  : 6 channels
    Channel layout              : C L R Ls Rs LFE
    Sampling rate               : 48.0 kHz
    Frame rate                  : 93.750 FPS (512 SPF)
    Bit depth                   : 24 bits
    Compression mode            : Lossless
    Stream size                 : 2.78 GiB (14%)
    Language                    : English
    Default                     : No
    Forced                      : No
    Original source medium      : Blu-ray

    Audio #2
    ID                          : 3
    ID in the original source m : 4353 (0x1101)
    Format                      : DTS XLL
    Format/Info                 : Digital Theater Systems
    Commercial name             : DTS-HD Master Audio
    Codec ID                    : A_DTS
    Duration                    : 1 h 36 min
    Bit rate mode               : Variable
    Bit rate                    : 2 118 kb/s
    Channel(s)                  : 2 channels
    Channel layout              : L R
    Sampling rate               : 48.0 kHz
    Frame rate                  : 93.750 FPS (512 SPF)
    Bit depth                   : 24 bits
    Compression mode            : Lossless
    Stream size                 : 1.43 GiB (7%)
    Language                    : English
    Default                     : No
    Forced                      : No
    Original source medium      : Blu-ray

    Audio #3
    ID                          : 4
    ID in the original source m : 4355 (0x1103)
    Format                      : DTS
    Format/Info                 : Digital Theater Systems
    Codec ID                    : A_DTS
    Duration                    : 1 h 36 min
    Bit rate mode               : Constant
    Bit rate                    : 768 kb/s
    Channel(s)                  : 2 channels
    Channel layout              : L R
    Sampling rate               : 48.0 kHz
    Frame rate                  : 93.750 FPS (512 SPF)
    Bit depth                   : 24 bits
    Compression mode            : Lossy
    Stream size                 : 533 MiB (3%)
    Language                    : Spanish
    Default                     : Yes
    Forced                      : No
    Original source medium      : Blu-ray

    Text
    ID                          : 5
    ID in the original source m : 4610 (0x1202)
    Format                      : PGS
    Muxing mode                 : zlib
    Codec ID                    : S_HDMV/PGS
    Codec ID/Info               : Picture based subtitle format used on BDs/HD-DVDs
    Duration                    : 1 h 32 min
    Bit rate                    : 25.4 kb/s
    Frame rate                  : 0.372 FPS
    Count of elements           : 2062
    Stream size                 : 16.8 MiB (0%)
    Language                    : Spanish
    Default                     : No
    Forced                      : No
    Original source medium      : Blu-ray

    Menu
    00:00:00.000                : en:Capítulo 01
    00:04:47.287                : en:Capítulo 02
    00:07:32.326                : en:Capítulo 03
    00:09:58.973                : en:Capítulo 04
    00:14:45.759                : en:Capítulo 05
    00:16:13.806                : en:Capítulo 06
    00:18:40.911                : en:Capítulo 07
    00:21:31.415                : en:Capítulo 08
    00:22:47.991                : en:Capítulo 09
    00:26:52.235                : en:Capítulo 10
    00:28:23.243                : en:Capítulo 11
    00:32:17.852                : en:Capítulo 12
    00:33:17.495                : en:Capítulo 13
    00:35:36.175                : en:Capítulo 14
    00:39:41.337                : en:Capítulo 15
    00:40:34.557                : en:Capítulo 16
    00:43:21.390                : en:Capítulo 17
    00:46:50.557                : en:Capítulo 18
    00:49:38.558                : en:Capítulo 19
    00:51:34.841                : en:Capítulo 20
    00:52:59.467                : en:Capítulo 21
    00:57:41.708                : en:Capítulo 22
    00:58:47.357                : en:Capítulo 23
    01:01:40.154                : en:Capítulo 24
    01:07:06.188                : en:Capítulo 25
    01:09:22.992                : en:Capítulo 26
    01:13:20.813                : en:Capítulo 27
    01:18:08.350                : en:Capítulo 28
    01:20:47.300                : en:Capítulo 29
    01:24:02.495                : en:Capítulo 30
    01:26:53.666                : en:Capítulo 31
    01:29:03.338                : en:Capítulo 32
    01:31:21.726                : en:Capítulo 33

  • Peso: 19.6 GiB

Sinopsis

Una vez que su novia le abandona por un esquiador palurdo, Lane decide que el suicidio es su única salida. Pero sus intentonas serán cada vez más fallidas, trayéndole sólo más angustia y desconcierto

Ficha técnica

Video trailer de la película

Enlaces de descarga

Rip de Bluray

Descargar Better Off Dead (1985) REMUX 1080p Latino – CMHDD


Aportes de DPeliculasHDmega la pass es:dpeliculashdmega.org Aportes de CinemaniaHD la pass es:cinemaniahdd.com Aportes recientes:cinemaniahdd.net
Guardado en : Comedia

Películas relacionadas

  • Find Me Falling (2024) NF WEB-DL 1080p Latino

    Find Me Falling (2024) NF WEB-DL 1080p Latino

    2024
    Find Me Falling (2024) NF WEB-DL 1080p Latino

    0h 0m 2024

    Descargar Find Me Falling (2024) NF WEB-DL 1080p Latino. Tras el fracaso del disco con el que pensaba...

    Director: Stelana Kliris

    Género: Comedia

    Actores: Yiola Klitou

  • Goyo (2024) NF WEB-DL 1080p Latino

    Goyo (2024) NF WEB-DL 1080p Latino

    2024
    Goyo (2024) NF WEB-DL 1080p Latino

    1h 47m 2024

    Descargar Goyo (2024) NF WEB-DL 1080p Latino. Goyo es un hombre con Asperger, fanático de Van Gogh,...

    Director: Pablo Discianni

    Género: Comedia

    Actores: Walter Fabian Andrade

  • Cobra Kai (2024) Temporada 6 NF WEB-DL 1080p Latino

    Cobra Kai (2024) Temporada 6 NF WEB-DL 1080p Latino

    2018
    Cobra Kai (2024) Temporada 6 NF WEB-DL 1080p Latino

    0h 0m 2018

    Descargar Cobra Kai (2024) Temporada 6 NF WEB-DL 1080p Latino. Cobra Kai tiene lugar treinta y cuatro...

    Director: Josh Heald

    Género: Action & Adventure

    Actores: Xolo Mariduena

descargar Better Off Dead (1985) REMUX 1080p Latino – CMHDD Full 1080p 1080p gratis, Better Off Dead (1985) REMUX 1080p Latino – CMHDD Full 1080p mega 1 link, Better Off Dead (1985) REMUX 1080p Latino – CMHDD Full 1080p pelicula completa, descargar Better Off Dead (1985) REMUX 1080p Latino – CMHDD Full 1080p gratis en mega.

Better Off Dead (1985) REMUX 1080p Latino – CMHDD pelicula full hd, Better Off Dead (1985) REMUX 1080p Latino – CMHDD mega latino, Better Off Dead (1985) REMUX 1080p Latino – CMHDD 4k latino, Better Off Dead (1985) REMUX 1080p Latino – CMHDD pelicula completa, Better Off Dead (1985) REMUX 1080p Latino – CMHDD descargar gratis, descargar Better Off Dead (1985) REMUX 1080p Latino – CMHDD pelicula latino, Better Off Dead (1985) REMUX 1080p Latino – CMHDD 1 link mega, Better Off Dead (1985) REMUX 1080p Latino – CMHDD 1 link google drive, Better Off Dead (1985) REMUX 1080p Latino – CMHDD hd 1080p latino.
Comentarios 0