Better Call Saul (2020) Temporada 5 NF WEB-DL 1080p Latino

2.904 vistas
1 estrella2 estrellas3 estrellas4 estrellas5 estrellas (4 votos, promedio: 4,00 de 5)
Cargando...

Información de Better Call Saul (2020) Temporada 5 NF WEB-DL 1080p Latino

Datos de la película

  • Calidad: WEBDL
  • Audio: Español Latino AC3 5.1 Netflix - Ingles AC3 5.1 Netflix
  • Subtitulos: Español Latino SRT- FORZADOS SRT
  • Resolución: 1920x1080
  • Formato: MKV
  • Codec: H.264
  • Encoder: cinemaniahdd
  • Mediainfo: Clic para Mostrar Datos Ver
  • Better Call Saul T05E01 NF WEB-DL 1080p Latino.mkv
    Format                      : Matroska
    Format version              : Version 4
    File size                   : 1.68 GiB
    Duration                    : 54 min 53 s
    Overall bit rate mode       : Variable
    Overall bit rate            : 4 387 kb/s
    Movie name                  : Better Call Saul T05E01 - CinemaniaHDD.Net
    Encoded date                : UTC 2020-02-24 14:22:54
    Writing application         : mkvmerge v42.0.0 ('Overtime') 64-bit
    Writing library             : libebml v1.3.10 + libmatroska v1.5.2

    Video
    ID                          : 1
    Format                      : AVC
    Format/Info                 : Advanced Video Codec
    Format profile              : Main@L4
    Format settings             : CABAC / 3 Ref Frames
    Format settings, CABAC      : Yes
    Format settings, ReFrames   : 3 frames
    Codec ID                    : V_MPEG4/ISO/AVC
    Duration                    : 54 min 53 s
    Bit rate mode               : Variable
    Bit rate                    : 3 650 kb/s
    Maximum bit rate            : 5 475 kb/s
    Width                       : 1 920 pixels
    Height                      : 1 080 pixels
    Display aspect ratio        : 16:9
    Frame rate mode             : Constant
    Frame rate                  : 23.976 (24000/1001) FPS
    Color space                 : YUV
    Chroma subsampling          : 4:2:0
    Bit depth                   : 8 bits
    Scan type                   : Progressive
    Bits/(Pixel*Frame)          : 0.073
    Stream size                 : 1.39 GiB (82%)
    Title                       : CinemaniaHDD
    Writing library             : x264 core 148 r2717 0d2410d
    Encoding settings           : cabac=1 / ref=3 / deblock=1:0:0 / analyse=0x1:0x111 / me=umh / subme=10 / psy=1 / psy_rd=1.00:0.00 / mixed_ref=1 / me_range=24 / chroma_me=1 / trellis=2 / 8x8dct=0 / cqm=0 / deadzone=21,11 / fast_pskip=1 / chroma_qp_offset=-2 / threads=6 / lookahead_threads=1 / sliced_threads=0 / nr=0 / decimate=1 / interlaced=0 / bluray_compat=0 / stitchable=1 / constrained_intra=0 / bframes=2 / b_pyramid=0 / b_adapt=2 / b_bias=0 / direct=3 / weightb=1 / open_gop=0 / weightp=2 / keyint=250 / keyint_min=23 / scenecut=0 / intra_refresh=0 / rc_lookahead=48 / rc=2pass / mbtree=1 / bitrate=3650 / ratetol=1.0 / qcomp=0.50 / qpmin=6 / qpmax=51 / qpstep=4 / cplxblur=20.0 / qblur=0.5 / vbv_maxrate=5475 / vbv_bufsize=7300 / nal_hrd=vbr / filler=0 / ip_ratio=1.40 / aq=1:1.00
    Default                     : Yes
    Forced                      : No

    Audio #1
    ID                          : 2
    Format                      : AC-3
    Format/Info                 : Audio Coding 3
    Commercial name             : Dolby Digital
    Codec ID                    : A_AC3
    Duration                    : 54 min 53 s
    Bit rate mode               : Constant
    Bit rate                    : 384 kb/s
    Channel(s)                  : 6 channels
    Channel layout              : L R C LFE Ls Rs
    Sampling rate               : 48.0 kHz
    Frame rate                  : 31.250 FPS (1536 SPF)
    Bit depth                   : 16 bits
    Compression mode            : Lossy
    Stream size                 : 151 MiB (9%)
    Title                       : Español latino [CinemaniaHDD]
    Language                    : Spanish
    Service kind                : Complete Main
    Default                     : Yes
    Forced                      : No

    Audio #2
    ID                          : 3
    Format                      : AC-3
    Format/Info                 : Audio Coding 3
    Commercial name             : Dolby Digital
    Codec ID                    : A_AC3
    Duration                    : 54 min 53 s
    Bit rate mode               : Constant
    Bit rate                    : 384 kb/s
    Channel(s)                  : 6 channels
    Channel layout              : L R C LFE Ls Rs
    Sampling rate               : 48.0 kHz
    Frame rate                  : 31.250 FPS (1536 SPF)
    Bit depth                   : 16 bits
    Compression mode            : Lossy
    Stream size                 : 151 MiB (9%)
    Title                       : Inglés [CinemaniaHDD]
    Language                    : English
    Service kind                : Complete Main
    Default                     : No
    Forced                      : No

    Text #1
    ID                          : 4
    Format                      : UTF-8
    Codec ID                    : S_TEXT/UTF8
    Codec ID/Info               : UTF-8 Plain Text
    Duration                    : 40 min 39 s
    Bit rate                    : 0 b/s
    Count of elements           : 2
    Stream size                 : 74.0 Bytes (0%)
    Title                       : Forzados [CinemaniaHDD]
    Language                    : Spanish
    Default                     : Yes
    Forced                      : Yes

    Text #2
    ID                          : 5
    Format                      : UTF-8
    Codec ID                    : S_TEXT/UTF8
    Codec ID/Info               : UTF-8 Plain Text
    Duration                    : 53 min 4 s
    Bit rate                    : 53 b/s
    Count of elements           : 644
    Stream size                 : 20.9 KiB (0%)
    Title                       : Español latino [CinemaniaHDD]
    Language                    : Spanish
    Default                     : No
    Forced                      : No

    Text #3
    ID                          : 6
    Format                      : UTF-8
    Codec ID                    : S_TEXT/UTF8
    Codec ID/Info               : UTF-8 Plain Text
    Duration                    : 53 min 49 s
    Bit rate                    : 59 b/s
    Count of elements           : 726
    Stream size                 : 23.6 KiB (0%)
    Title                       : Inglés [CinemaniaHDD]
    Language                    : English
    Default                     : No
    Forced                      : No

     

  • Peso: 1.68 GiB C/U --- TEMPORADA COMPLETA

Sinopsis

Seis años antes de que Saul Goodman conozca a Walter White. Lo conocemos cuando el hombre que se convertirá en Saul Goodman es conocido como Jimmy McGill, un abogado de poca monta que busca su destino y, más inmediatamente, que se apresura a llegar a fin de mes. Trabajando junto a, y, a menudo, contra Jimmy, está «reparador» Mike Ehrmantraut. La serie rastrea la transformación de Jimmy en Saul Goodman, el hombre que pone «criminal» en «abogado criminal».

10 CAPITULOS AGREGADOS

TEMPORADA COMPLETA

Ficha técnica

Video trailer de la película

Enlaces de descarga

Rip de Bluray

Descargar Better Call Saul (2020) Temporada 5 NF WEB-DL 1080p Latino




Aportes de DPeliculasHDmega la pass es:dpeliculashdmega.org Aportes de CinemaniaHD la pass es:cinemaniahdd.com
Guardado en : Comedia , Crimen , Drama , Netflix , Series

Películas relacionadas

Comentarios 7
  • Norberto - 08 junio, 2020

    Hola Estuve Bajando la serie Better Call Saul (2020) Temporada 5 NF WEB-DL 1080p Latino pero falta el episodio 10 de esta temporada, podrás conseguirlo para descarga?, gracias muy buena la pagina

    • CinemaniaHDD - 08 septiembre, 2020

      Agregandolo…

  • alex - 25 mayo, 2020

    Hola, y el último capitulo? Saludos

  • Oscar Garcia - 25 abril, 2020

    Amigo sube por favor el ùltimo capitulo (05×10) para terminar la serie.

    Gracias

  • RANGO - 22 abril, 2020

    SUBAN EL CAPITULO 10 MUCHAS GRACIAS ESTOY COMO LOCO JA JA

  • Jose - 02 abril, 2020

    agradezco mucho que suban esta hermosa serie

  • CinemaniaHDD - 25 febrero, 2020

    AMZN tiene mas peso y calidad y la de NF pesa menos y la calidad es inferior.
    calidad solo en video