×

¿Problemas para descargar con Mozilla, EDGE? Deshabilita la opción "Abrir vinculos en una pestaña nueva" tal como lo muestra ésta imagen.

Bestia (2022) MA WEB-DL 4K UHD HDR Latino

42 vistas

Información de Bestia (2022) MA WEB-DL 4K UHD HDR Latino

Datos de la película

  • Calidad: WEBDL
  • Audio: Español Latino AC3 5.1 WEB-DL - Ingles AC3 5.1 WEB-DL
  • Subtitulos: Español Latino SRT- FORZADOS SRT
  • Resolución: 3840x2160p
  • Formato: MKV
  • Codec: HEVC
  • Encoder: Melkor
  • Mediainfo: Clic para Mostrar Datos Ver
  • Bestia (2022) MA WEB UHD HDR Latino.mkv
    Format                      : Matroska
    Format version              : Version 4
    File size                   : 16.5 GiB
    Duration                    : 1 h 32 min
    Overall bit rate            : 25.5 Mb/s
    Movie name                  : Beast (2022) CinemaniaHDD.Net
    Encoded date                : UTC 2022-09-13 02:22:37
    Writing application         : mkvmerge v56.1.0 ('My Friend') 64-bit
    Writing library             : libebml v1.4.2 + libmatroska v1.6.4
    Attachments                 : CINEMANIAHD.png

    Video
    ID                          : 1
    Format                      : HEVC
    Format/Info                 : High Efficiency Video Coding
    Format profile              : Main 10@L5@High
    HDR format                  : Dolby Vision, Version 1.0, dvhe.08.06, BL+RPU, HDR10 compatible / SMPTE ST 2086, HDR10 compatible
    Codec ID                    : V_MPEGH/ISO/HEVC
    Duration                    : 1 h 32 min
    Bit rate                    : 24.3 Mb/s
    Width                       : 3 840 pixels
    Height                      : 2 160 pixels
    Display aspect ratio        : 16:9
    Frame rate mode             : Constant
    Frame rate                  : 23.976 (24000/1001) FPS
    Color space                 : YUV
    Chroma subsampling          : 4:2:0 (Type 2)
    Bit depth                   : 10 bits
    Bits/(Pixel*Frame)          : 0.122
    Stream size                 : 15.8 GiB (95%)
    Title                       : Web 2160p HDR [CinemaniaHDD]
    Default                     : Yes
    Forced                      : No
    Color range                 : Limited
    Color primaries             : BT.2020
    Transfer characteristics    : PQ
    Matrix coefficients         : BT.2020 non-constant
    Mastering display color pri : BT.2020
    Mastering display luminance : min: 0.0050 cd/m2, max: 1000 cd/m2
    Maximum Content Light Level : 485 cd/m2
    Maximum Frame-Average Light : 62 cd/m2

    Audio #1
    ID                          : 2
    Format                      : AC-3
    Format/Info                 : Audio Coding 3
    Commercial name             : Dolby Digital
    Codec ID                    : A_AC3
    Duration                    : 1 h 32 min
    Bit rate mode               : Constant
    Bit rate                    : 448 kb/s
    Channel(s)                  : 6 channels
    Channel layout              : L R C LFE Ls Rs
    Sampling rate               : 48.0 kHz
    Frame rate                  : 31.250 FPS (1536 SPF)
    Compression mode            : Lossy
    Stream size                 : 297 MiB (2%)
    Title                       : Español Latino [CinemaniaHDD]
    Language                    : Spanish
    Service kind                : Complete Main
    Default                     : Yes
    Forced                      : Yes

    Audio #2
    ID                          : 3
    Format                      : E-AC-3 JOC
    Format/Info                 : Enhanced AC-3 with Joint Object Coding
    Commercial name             : Dolby Digital Plus with Dolby Atmos
    Codec ID                    : A_EAC3
    Duration                    : 1 h 32 min
    Bit rate mode               : Constant
    Bit rate                    : 768 kb/s
    Channel(s)                  : 6 channels
    Channel layout              : L R C LFE Ls Rs
    Sampling rate               : 48.0 kHz
    Frame rate                  : 31.250 FPS (1536 SPF)
    Compression mode            : Lossy
    Stream size                 : 510 MiB (3%)
    Title                       : Ingles [CinemaniaHDD]
    Language                    : English
    Service kind                : Complete Main
    Default                     : No
    Forced                      : No
    Complexity index            : 16
    Number of dynamic objects   : 15
    Bed channel count           : 1 channel
    Bed channel configuration   : LFE

    Text #1
    ID                          : 4
    Format                      : UTF-8
    Codec ID                    : S_TEXT/UTF8
    Codec ID/Info               : UTF-8 Plain Text
    Duration                    : 1 h 1 min
    Bit rate                    : 0 b/s
    Count of elements           : 3
    Stream size                 : 67.0 Bytes (0%)
    Title                       : Forzados-SRT [CinemaniaHDD]
    Language                    : Spanish
    Default                     : Yes
    Forced                      : Yes

    Text #2
    ID                          : 5
    Format                      : UTF-8
    Codec ID                    : S_TEXT/UTF8
    Codec ID/Info               : UTF-8 Plain Text
    Duration                    : 1 h 31 min
    Bit rate                    : 56 b/s
    Count of elements           : 1364
    Stream size                 : 38.3 KiB (0%)
    Title                       : Español-SRT [CinemaniaHDD]
    Language                    : Spanish
    Default                     : No
    Forced                      : No

    Text #3
    ID                          : 6
    Format                      : UTF-8
    Codec ID                    : S_TEXT/UTF8
    Codec ID/Info               : UTF-8 Plain Text
    Duration                    : 1 h 31 min
    Bit rate                    : 76 b/s
    Count of elements           : 1807
    Stream size                 : 51.3 KiB (0%)
    Title                       : Ingles-SRT [CinemaniaHDD]
    Language                    : English
    Default                     : No
    Forced                      : No

    Menu
    00:00:00.000                : Chapter 1
    00:04:22.000                : Chapter 2
    00:10:36.000                : Chapter 3
    00:16:41.000                : Chapter 4
    00:19:03.000                : Chapter 5
    00:24:45.000                : Chapter 6
    00:29:19.000                : Chapter 7
    00:34:09.000                : Chapter 8
    00:37:31.000                : Chapter 9
    00:43:29.000                : Chapter 10
    00:50:49.000                : Chapter 11
    00:55:13.000                : Chapter 12
    00:57:59.000                : Chapter 13
    01:05:23.000                : Chapter 14
    01:09:01.000                : Chapter 15
    01:13:10.000                : Chapter 16
    01:18:59.000                : Chapter 17
    01:22:25.000                : Chapter 18
    01:24:37.000                : Chapter 19
    01:27:14.000                : Chapter 20

  • Peso: 16.5 GiB

Sinopsis

Descargar Bestia (2022) MA WEB-DL 4K UHD HDR Latino. El Doctor Nate Samuels, que se ha quedado viudo recientemente, regresa a Sudáfrica, lugar en el que conoció a su mujer, para visitar una reserva de animales con sus hijas. Pero lo que empieza siendo un viaje curativo se convierte en una lucha por la supervivencia cuando un león que ha escapado de unos cazadores furtivos empieza a seguirles.

Ficha técnica

Video trailer de la película

Enlaces de descarga

Rip de Bluray

Descargar Bestia (2022) MA WEB-DL 4K UHD HDR Latino




Aportes de DPeliculasHDmega la pass es:dpeliculashdmega.org Aportes de CinemaniaHD la pass es:cinemaniahdd.com
Guardado en : 4K HDR , 4K UHD , Suspenso , Terror

Películas relacionadas

descargar Bestia (2022) MA WEB-DL 4K UHD HDR Latino WEBDL 1080p gratis, Bestia (2022) MA WEB-DL 4K UHD HDR Latino WEBDL mega 1 link, Bestia (2022) MA WEB-DL 4K UHD HDR Latino WEBDL pelicula completa, descargar Bestia (2022) MA WEB-DL 4K UHD HDR Latino WEBDL gratis en mega.

Bestia (2022) MA WEB-DL 4K UHD HDR Latino pelicula full hd, Bestia (2022) MA WEB-DL 4K UHD HDR Latino mega latino, Bestia (2022) MA WEB-DL 4K UHD HDR Latino 4k latino, Bestia (2022) MA WEB-DL 4K UHD HDR Latino pelicula completa, Bestia (2022) MA WEB-DL 4K UHD HDR Latino descargar gratis, descargar Bestia (2022) MA WEB-DL 4K UHD HDR Latino pelicula latino, Bestia (2022) MA WEB-DL 4K UHD HDR Latino 1 link mega, Bestia (2022) MA WEB-DL 4K UHD HDR Latino 1 link google drive, Bestia (2022) MA WEB-DL 4K UHD HDR Latino hd 1080p latino.
Comentarios 0