×

¿Problemas para descargar con Mozilla, EDGE? Deshabilita la opción "Abrir vinculos en una pestaña nueva" tal como lo muestra ésta imagen.

Bernardo y Bianca (1977) Full HD 1080p Latino – CMHDD

783 vistas

Información de Bernardo y Bianca (1977) Full HD 1080p Latino – CMHDD

Datos de la película

  • Calidad: Full 1080p
  • Audio: Español Latino AC3 5.1 BLURAY - Ingles DTS 5.1 BLURAY
  • Subtitulos: Español Latino SRT- FORZADOS SRT
  • Resolución: 1920x1080p
  • Formato: MKV
  • Codec: H.264
  • Encoder: Dracarys
  • Mediainfo: Clic para Mostrar Datos Ver
  • Format                      : Matroska
    Format version              : Version 4
    File size                   : 7.58 GiB
    Duration                    : 1 h 17 min
    Overall bit rate mode       : Variable
    Overall bit rate            : 14.0 Mb/s
    Movie name                  : Bernardo y Bianca (1977) Full HD 1080p Latino - CMHDD
    Encoded date                : UTC 2020-09-01 20:52:46
    Writing application         : mkvmerge v46.0.0 ('No Deeper Escape') 64-bit
    Writing library             : libebml v1.3.10 + libmatroska v1.5.2

    Video
    ID                          : 1
    Format                      : AVC
    Format/Info                 : Advanced Video Codec
    Format profile              : High@L4.1
    Format settings             : CABAC / 4 Ref Frames
    Format settings, CABAC      : Yes
    Format settings, Reference  : 4 frames
    Codec ID                    : V_MPEG4/ISO/AVC
    Duration                    : 1 h 17 min
    Bit rate                    : 9 460 kb/s
    Width                       : 1 920 pixels
    Height                      : 1 080 pixels
    Display aspect ratio        : 16:9
    Frame rate mode             : Constant
    Frame rate                  : 23.976 (24000/1001) FPS
    Color space                 : YUV
    Chroma subsampling          : 4:2:0
    Bit depth                   : 8 bits
    Scan type                   : Progressive
    Bits/(Pixel*Frame)          : 0.190
    Stream size                 : 5.10 GiB (67%)
    Writing library             : x264 core 157 r2935 545de2f
    Encoding settings           : cabac=1 / ref=4 / deblock=1:0:0 / analyse=0x3:0x133 / me=tesa / subme=11 / psy=1 / psy_rd=1.00:0.00 / mixed_ref=1 / me_range=24 / chroma_me=1 / trellis=2 / 8x8dct=1 / cqm=0 / deadzone=21,11 / fast_pskip=0 / chroma_qp_offset=-2 / threads=24 / lookahead_threads=6 / sliced_threads=0 / nr=0 / decimate=1 / interlaced=0 / bluray_compat=0 / constrained_intra=0 / bframes=16 / b_pyramid=2 / b_adapt=2 / b_bias=0 / direct=3 / weightb=1 / open_gop=0 / weightp=2 / keyint=240 / keyint_min=24 / scenecut=40 / intra_refresh=0 / rc_lookahead=60 / rc=crf / mbtree=1 / crf=20.0 / qcomp=0.60 / qpmin=0 / qpmax=69 / qpstep=4 / vbv_maxrate=62500 / vbv_bufsize=78125 / crf_max=0.0 / nal_hrd=none / filler=0 / ip_ratio=1.40 / aq=1:1.00
    Default                     : Yes
    Forced                      : No
    Color range                 : Limited
    Color primaries             : BT.709
    Transfer characteristics    : BT.709
    Matrix coefficients         : BT.709

    Audio #1
    ID                          : 2
    Format                      : AC-3
    Format/Info                 : Audio Coding 3
    Commercial name             : Dolby Digital
    Codec ID                    : A_AC3
    Duration                    : 1 h 17 min
    Bit rate mode               : Constant
    Bit rate                    : 640 kb/s
    Channel(s)                  : 6 channels
    Channel layout              : L R C LFE Ls Rs
    Sampling rate               : 48.0 kHz
    Frame rate                  : 31.250 FPS (1536 SPF)
    Compression mode            : Lossy
    Stream size                 : 354 MiB (5%)
    Language                    : Spanish
    Service kind                : Complete Main
    Default                     : Yes
    Forced                      : No

    Audio #2
    ID                          : 3
    Format                      : DTS XLL
    Format/Info                 : Digital Theater Systems
    Commercial name             : DTS-HD Master Audio
    Codec ID                    : A_DTS
    Duration                    : 1 h 17 min
    Bit rate mode               : Variable
    Bit rate                    : 3 945 kb/s
    Channel(s)                  : 6 channels
    Channel layout              : C L R Ls Rs LFE
    Sampling rate               : 48.0 kHz
    Frame rate                  : 93.750 FPS (512 SPF)
    Bit depth                   : 24 bits
    Compression mode            : Lossless
    Stream size                 : 2.13 GiB (28%)
    Language                    : English
    Default                     : No
    Forced                      : No

    Text #1
    ID                          : 4
    Format                      : UTF-8
    Codec ID                    : S_TEXT/UTF8
    Codec ID/Info               : UTF-8 Plain Text
    Duration                    : 1 h 15 min
    Bit rate                    : 0 b/s
    Count of elements           : 22
    Stream size                 : 456 Bytes (0%)
    Title                       : Forzados
    Language                    : Spanish
    Default                     : Yes
    Forced                      : No

    Text #2
    ID                          : 5
    Format                      : UTF-8
    Codec ID                    : S_TEXT/UTF8
    Codec ID/Info               : UTF-8 Plain Text
    Duration                    : 1 h 15 min
    Bit rate                    : 41 b/s
    Count of elements           : 924
    Stream size                 : 23.2 KiB (0%)
    Language                    : Spanish
    Default                     : No
    Forced                      : No

    Menu
    00:00:00.000                : :Chapter 1
    00:04:17.716                : :Chapter 2
    00:11:26.603                : :Chapter 3
    00:14:06.012                : :Chapter 4
    00:19:50.481                : :Chapter 5
    00:23:57.353                : :Chapter 6
    00:29:38.193                : :Chapter 7
    00:32:37.539                : :Chapter 8
    00:38:04.324                : :Chapter 9
    00:42:13.364                : :Chapter 10
    00:52:37.988                : :Chapter 11
    00:55:22.027                : :Chapter 12
    01:00:19.324                : :Chapter 13
    01:09:11.981                : :Chapter 14
    01:15:26.981                : :Chapter 15

  • Peso: 7.58 GiB

Sinopsis

Una niña huérfana que ha sido secuestrada envía una nota dentro de una botella pidiendo ayuda. Bernardo y Bianca, dos valientes ratones, miembros de la Sociedad Internacional de Rescate, reciben el mensaje que los llevará al peligroso «Pantano del Diablo». Allí, ayudados por la libélula Evinrude y los habitantes del pantano, vivirán un sinfín de emocionantes aventuras luchando contra la malvada Madame Medusa

Ficha técnica

Video trailer de la película

Enlaces de descarga

Rip de Bluray

Descargar Bernardo y Bianca (1977) Full HD 1080p Latino – CMHDD




Aportes de DPeliculasHDmega la pass es:dpeliculashdmega.org Aportes de CinemaniaHD la pass es:cinemaniahdd.com Aportes recientes:cinemaniahdd.net

Películas relacionadas

descargar Bernardo y Bianca (1977) Full HD 1080p Latino – CMHDD Full 1080p 1080p gratis, Bernardo y Bianca (1977) Full HD 1080p Latino – CMHDD Full 1080p mega 1 link, Bernardo y Bianca (1977) Full HD 1080p Latino – CMHDD Full 1080p pelicula completa, descargar Bernardo y Bianca (1977) Full HD 1080p Latino – CMHDD Full 1080p gratis en mega.

Bernardo y Bianca (1977) Full HD 1080p Latino – CMHDD pelicula full hd, Bernardo y Bianca (1977) Full HD 1080p Latino – CMHDD mega latino, Bernardo y Bianca (1977) Full HD 1080p Latino – CMHDD 4k latino, Bernardo y Bianca (1977) Full HD 1080p Latino – CMHDD pelicula completa, Bernardo y Bianca (1977) Full HD 1080p Latino – CMHDD descargar gratis, descargar Bernardo y Bianca (1977) Full HD 1080p Latino – CMHDD pelicula latino, Bernardo y Bianca (1977) Full HD 1080p Latino – CMHDD 1 link mega, Bernardo y Bianca (1977) Full HD 1080p Latino – CMHDD 1 link google drive, Bernardo y Bianca (1977) Full HD 1080p Latino – CMHDD hd 1080p latino.
Comentarios 0