×

¿Problemas para descargar con Mozilla, EDGE? Deshabilita la opción "Abrir vinculos en una pestaña nueva" tal como lo muestra ésta imagen.

Bernard Tapie [Class Act] (2023) Temporada 1 NF WEB-DL 1080p Latino

198 vistas

Información de Bernard Tapie [Class Act] (2023) Temporada 1 NF WEB-DL 1080p Latino

Datos de la película

  • Calidad: WEBDL
  • Audio: Se especifica abajo de la Sinopsis
  • Subtitulos: Español Latino SRT- FORZADOS SRT
  • Resolución: 1920x1080p
  • Formato: MKV
  • Codec: H.264
  • Encoder: Melkor
  • Mediainfo: Clic para Mostrar Datos Ver
  • Class Act S01E01 (2023) NF WebDL 1080p Latino.mkv
    Format                      : Matroska
    Format version              : Version 4
    File size                   : 3.55 GiB
    Duration                    : 55 min 41 s
    Overall bit rate mode       : Variable
    Overall bit rate            : 9 119 kb/s
    Movie name                  : Class Act S01E01 CinemaniaHDD.Net
    Encoded date                : UTC 2023-09-16 03:51:29
    Writing application         : mkvmerge v59.0.0 ('Shining Star') 64-bit
    Writing library             : libebml v1.4.2 + libmatroska v1.6.4
    Attachments                 : CINEMANIAHD.png
    Site                        : CinemaniaHDD.Net
    Uploader                    : Melkor

    Video
    ID                          : 1
    Format                      : AVC
    Format/Info                 : Advanced Video Codec
    Format profile              : High@L4
    Format settings             : CABAC / 4 Ref Frames
    Format settings, CABAC      : Yes
    Format settings, Reference  : 4 frames
    Codec ID                    : V_MPEG4/ISO/AVC
    Duration                    : 55 min 41 s
    Bit rate mode               : Variable
    Bit rate                    : 7 837 kb/s
    Maximum bit rate            : 20.0 Mb/s
    Width                       : 1 920 pixels
    Height                      : 1 080 pixels
    Display aspect ratio        : 16:9
    Frame rate mode             : Constant
    Frame rate                  : 25.000 FPS
    Color space                 : YUV
    Chroma subsampling          : 4:2:0
    Bit depth                   : 8 bits
    Scan type                   : Progressive
    Bits/(Pixel*Frame)          : 0.151
    Stream size                 : 3.05 GiB (86%)
    Title                       : WEB HD1080p [CinemaniaHDD]
    Writing library             : x264 core 148 r2727 7d026e8
    Encoding settings           : cabac=1 / ref=4 / deblock=1:0:0 / analyse=0x3:0x111 / me=umh / subme=10 / psy=1 / psy_rd=1.00:0.00 / mixed_ref=1 / me_range=120 / chroma_me=1 / trellis=2 / 8x8dct=1 / cqm=0 / deadzone=21,11 / fast_pskip=1 / chroma_qp_offset=-2 / threads=6 / lookahead_threads=1 / sliced_threads=0 / nr=0 / decimate=1 / interlaced=0 / bluray_compat=0 / stitchable=1 / constrained_intra=0 / bframes=16 / b_pyramid=2 / b_adapt=2 / b_bias=0 / direct=3 / weightb=1 / open_gop=0 / weightp=2 / keyint=250 / keyint_min=126 / scenecut=0 / intra_refresh=0 / rc_lookahead=250 / rc=crf / mbtree=1 / crf=16.0 / qcomp=0.50 / qpmin=6 / qpmax=51 / qpstep=4 / vbv_maxrate=20000 / vbv_bufsize=25000 / crf_max=0.0 / nal_hrd=vbr / filler=0 / ip_ratio=1.40 / aq=1:0.80
    Default                     : Yes
    Forced                      : Yes

    Audio #1
    ID                          : 2
    Format                      : E-AC-3
    Format/Info                 : Enhanced AC-3
    Commercial name             : Dolby Digital Plus
    Codec ID                    : A_EAC3
    Duration                    : 55 min 41 s
    Bit rate mode               : Constant
    Bit rate                    : 640 kb/s
    Channel(s)                  : 6 channels
    Channel layout              : L R C LFE Ls Rs
    Sampling rate               : 48.0 kHz
    Frame rate                  : 31.250 FPS (1536 SPF)
    Compression mode            : Lossy
    Stream size                 : 255 MiB (7%)
    Title                       : Español Latino [CinemaniaHDD]
    Language                    : Spanish
    Service kind                : Complete Main
    Default                     : Yes
    Forced                      : Yes

    Audio #2
    ID                          : 3
    Format                      : E-AC-3
    Format/Info                 : Enhanced AC-3
    Commercial name             : Dolby Digital Plus
    Codec ID                    : A_EAC3
    Duration                    : 55 min 41 s
    Bit rate mode               : Constant
    Bit rate                    : 640 kb/s
    Channel(s)                  : 6 channels
    Channel layout              : L R C LFE Ls Rs
    Sampling rate               : 48.0 kHz
    Frame rate                  : 31.250 FPS (1536 SPF)
    Compression mode            : Lossy
    Stream size                 : 255 MiB (7%)
    Title                       : Frances [CinemaniaHDD]
    Language                    : French
    Service kind                : Complete Main
    Default                     : No
    Forced                      : No

    Text #1
    ID                          : 4
    Format                      : UTF-8
    Codec ID                    : S_TEXT/UTF8
    Codec ID/Info               : UTF-8 Plain Text
    Duration                    : 54 min 32 s
    Bit rate                    : 1 b/s
    Count of elements           : 24
    Stream size                 : 746 Bytes (0%)
    Title                       : Forzados-SRT [CinemaniaHDD]
    Language                    : Spanish
    Default                     : Yes
    Forced                      : Yes

    Text #2
    ID                          : 5
    Format                      : UTF-8
    Codec ID                    : S_TEXT/UTF8
    Codec ID/Info               : UTF-8 Plain Text
    Duration                    : 54 min 32 s
    Bit rate                    : 65 b/s
    Count of elements           : 902
    Stream size                 : 26.3 KiB (0%)
    Title                       : Español-SRT [CinemaniaHDD]
    Language                    : Spanish
    Default                     : No
    Forced                      : No

    Text #3
    ID                          : 6
    Format                      : UTF-8
    Codec ID                    : S_TEXT/UTF8
    Codec ID/Info               : UTF-8 Plain Text
    Duration                    : 53 min 5 s
    Bit rate                    : 94 b/s
    Count of elements           : 1055
    Stream size                 : 36.7 KiB (0%)
    Title                       : Ingles-SRT [CinemaniaHDD]
    Language                    : English
    Default                     : No
    Forced                      : No

  • Peso: 2 GiB Aprox C/U -- 15.4 GiB -- 7 Chapters

Sinopsis

Descargar Bernard Tapie [Class Act] (2023) Temporada 1 NF WEB-DL 1080p Latino. Un hombre de clase trabajadora implacablemente ambicioso se convierte en una de las figuras públicas más controvertidas de Francia en esta película biográfica ficticia sobre Bernard Tapie.

Español Latino – Frances [EAC3 5.1 NF]

Ficha técnica

Video trailer de la película

Enlaces de descarga

Rip de Bluray

Descargar Bernard Tapie [Class Act] (2023) Temporada 1 NF WEB-DL 1080p Latino




Aportes de DPeliculasHDmega la pass es:dpeliculashdmega.org Aportes de CinemaniaHD la pass es:cinemaniahdd.com Aportes recientes:cinemaniahdd.net
Guardado en : Drama , Netflix , Series

Películas relacionadas

descargar Bernard Tapie [Class Act] (2023) Temporada 1 NF WEB-DL 1080p Latino WEBDL 1080p gratis, Bernard Tapie [Class Act] (2023) Temporada 1 NF WEB-DL 1080p Latino WEBDL mega 1 link, Bernard Tapie [Class Act] (2023) Temporada 1 NF WEB-DL 1080p Latino WEBDL serie completa, descargar Bernard Tapie [Class Act] (2023) Temporada 1 NF WEB-DL 1080p Latino WEBDL gratis en mega.

Bernard Tapie [Class Act] (2023) Temporada 1 NF WEB-DL 1080p Latino pelicula full hd, Bernard Tapie [Class Act] (2023) Temporada 1 NF WEB-DL 1080p Latino mega latino, Bernard Tapie [Class Act] (2023) Temporada 1 NF WEB-DL 1080p Latino 4k latino, Bernard Tapie [Class Act] (2023) Temporada 1 NF WEB-DL 1080p Latino pelicula completa, Bernard Tapie [Class Act] (2023) Temporada 1 NF WEB-DL 1080p Latino descargar gratis, descargar Bernard Tapie [Class Act] (2023) Temporada 1 NF WEB-DL 1080p Latino pelicula latino, Bernard Tapie [Class Act] (2023) Temporada 1 NF WEB-DL 1080p Latino 1 link mega, Bernard Tapie [Class Act] (2023) Temporada 1 NF WEB-DL 1080p Latino 1 link google drive, Bernard Tapie [Class Act] (2023) Temporada 1 NF WEB-DL 1080p Latino hd 1080p latino.
Comentarios 0