×

¿Problemas para descargar con Mozilla, EDGE? Deshabilita la opción "Abrir vinculos en una pestaña nueva" tal como lo muestra ésta imagen.

Berlin Syndrome (2017) REMUX 1080p Latino

282 vistas

Información de Berlin Syndrome (2017) REMUX 1080p Latino

Datos de la película

  • Calidad: Full 1080p
  • Audio: Español Latino AC3 5.1 iTUNES - Ingles DTS 5.1 BLURAY
  • Subtitulos: Español Latino SRT- FORZADOS SRT
  • Resolución: 1920x1080p
  • Formato: MKV
  • Codec: H.264
  • Encoder: CinefiloCool
  • Mediainfo: Clic para Mostrar Datos Ver
  • Berlin Syndrome (2017) REMUX 1080p Latino-CMHDD.mkv
    Format                      : Matroska
    Format version              : Version 4
    File size                   : 28.5 GiB
    Duration                    : 1 h 55 min
    Overall bit rate mode       : Variable
    Overall bit rate            : 35.1 Mb/s
    Movie name                  : Berlin Syndrome (2017) CinemaniaHDD.Net
    Encoded date                : UTC 2020-10-02 03:43:41
    Writing application         : mkvmerge v46.0.0 ('No Deeper Escape') 64-bit
    Writing library             : libebml v1.3.10 + libmatroska v1.5.2
    Attachments                 : CINEMANIAHD.png

    Video
    ID                          : 1
    Format                      : AVC
    Format/Info                 : Advanced Video Codec
    Format profile              : High@L4.1
    Format settings             : CABAC / 4 Ref Frames
    Format settings, CABAC      : Yes
    Format settings, Reference  : 4 frames
    Codec ID                    : V_MPEG4/ISO/AVC
    Duration                    : 1 h 55 min
    Bit rate mode               : Constant
    Bit rate                    : 32.9 Mb/s
    Nominal bit rate            : 35.0 Mb/s
    Width                       : 1 920 pixels
    Height                      : 1 080 pixels
    Display aspect ratio        : 16:9
    Frame rate mode             : Constant
    Frame rate                  : 24.000 FPS
    Standard                    : NTSC
    Color space                 : YUV
    Chroma subsampling          : 4:2:0
    Bit depth                   : 8 bits
    Scan type                   : Progressive
    Bits/(Pixel*Frame)          : 0.661
    Stream size                 : 26.6 GiB (94%)
    Title                       : REMUX 1080p [CinemaniaHDD]
    Default                     : Yes
    Forced                      : Yes
    Color range                 : Limited
    Color primaries             : BT.709
    Transfer characteristics    : BT.709
    Matrix coefficients         : BT.709

    Audio #1
    ID                          : 2
    Format                      : AC-3
    Format/Info                 : Audio Coding 3
    Commercial name             : Dolby Digital
    Codec ID                    : A_AC3
    Duration                    : 1 h 55 min
    Bit rate mode               : Constant
    Bit rate                    : 384 kb/s
    Channel(s)                  : 6 channels
    Channel layout              : L R C LFE Ls Rs
    Sampling rate               : 48.0 kHz
    Frame rate                  : 31.250 FPS (1536 SPF)
    Compression mode            : Lossy
    Stream size                 : 318 MiB (1%)
    Title                       : Español Latino [CinemaniaHDD]
    Language                    : Spanish
    Service kind                : Complete Main
    Default                     : Yes
    Forced                      : Yes

    Audio #2
    ID                          : 3
    Format                      : DTS XLL
    Format/Info                 : Digital Theater Systems
    Commercial name             : DTS-HD Master Audio
    Codec ID                    : A_DTS
    Duration                    : 1 h 55 min
    Bit rate mode               : Variable
    Bit rate                    : 1 879 kb/s
    Channel(s)                  : 6 channels
    Channel layout              : C L R Ls Rs LFE
    Sampling rate               : 48.0 kHz
    Frame rate                  : 93.750 FPS (512 SPF)
    Bit depth                   : 16 bits
    Compression mode            : Lossless
    Stream size                 : 1.52 GiB (5%)
    Title                       : Ingles [CinemaniaHDD]
    Language                    : English
    Default                     : No
    Forced                      : No

    Text #1
    ID                          : 4
    Format                      : UTF-8
    Codec ID                    : S_TEXT/UTF8
    Codec ID/Info               : UTF-8 Plain Text
    Duration                    : 1 h 17 min
    Bit rate                    : 7 b/s
    Count of elements           : 127
    Stream size                 : 4.51 KiB (0%)
    Title                       : Forzados-SRT [CinemaniaHDD]
    Language                    : Spanish
    Default                     : Yes
    Forced                      : Yes

    Text #2
    ID                          : 5
    Format                      : UTF-8
    Codec ID                    : S_TEXT/UTF8
    Codec ID/Info               : UTF-8 Plain Text
    Duration                    : 1 h 48 min
    Bit rate                    : 19 b/s
    Count of elements           : 590
    Stream size                 : 15.4 KiB (0%)
    Title                       : Español-SRT [CinemaniaHDD]
    Language                    : Spanish
    Default                     : No
    Forced                      : No

    Text #3
    ID                          : 6
    Format                      : UTF-8
    Codec ID                    : S_TEXT/UTF8
    Codec ID/Info               : UTF-8 Plain Text
    Duration                    : 1 h 46 min
    Bit rate                    : 16 b/s
    Count of elements           : 520
    Stream size                 : 13.0 KiB (0%)
    Title                       : Ingles-SRT [CinemaniaHDD]
    Language                    : English
    Default                     : No
    Forced                      : No

    Menu
    00:00:00.000                : en:Chapter 01
    00:10:26.917                : en:Chapter 02
    00:25:36.875                : en:Chapter 03
    00:38:12.375                : en:Chapter 04
    00:46:06.417                : en:Chapter 05
    00:55:35.417                : en:Chapter 06
    01:00:22.458                : en:Chapter 07
    01:14:52.708                : en:Chapter 08
    01:25:14.542                : en:Chapter 09
    01:35:52.042                : en:Chapter 10
    01:41:19.917                : en:Chapter 11
    01:50:47.625                : en:Chapter 12

  • Peso: 28.5 GiB

Sinopsis

Descargar Berlin Syndrome (2017) REMUX 1080p Latino. Clare es una fotógrafa australiana que se encuentra de vacaciones en Berlín. Allí conoce a Andi, un joven carismático que pronto se gana la atención de la chica. La atracción entre ambos es instantánea y terminan pasando la noche juntos. Sin embargo, Clare se despierta a la mañana siguiente sola y atrapada en el apartamento de Andi.

Ficha técnica

Video trailer de la película

Enlaces de descarga

Rip de Bluray

Descargar Berlin Syndrome (2017) REMUX 1080p Latino




Aportes de DPeliculasHDmega la pass es:dpeliculashdmega.org Aportes de CinemaniaHD la pass es:cinemaniahdd.com
Guardado en : Drama , Misterio , Remux , Suspenso

Películas relacionadas

descargar Berlin Syndrome (2017) REMUX 1080p Latino Full 1080p 1080p gratis, Berlin Syndrome (2017) REMUX 1080p Latino Full 1080p mega 1 link, Berlin Syndrome (2017) REMUX 1080p Latino Full 1080p pelicula completa, descargar Berlin Syndrome (2017) REMUX 1080p Latino Full 1080p gratis en mega.

Berlin Syndrome (2017) REMUX 1080p Latino pelicula full hd, Berlin Syndrome (2017) REMUX 1080p Latino mega latino, Berlin Syndrome (2017) REMUX 1080p Latino 4k latino, Berlin Syndrome (2017) REMUX 1080p Latino pelicula completa, Berlin Syndrome (2017) REMUX 1080p Latino descargar gratis, descargar Berlin Syndrome (2017) REMUX 1080p Latino pelicula latino, Berlin Syndrome (2017) REMUX 1080p Latino 1 link mega, Berlin Syndrome (2017) REMUX 1080p Latino 1 link google drive, Berlin Syndrome (2017) REMUX 1080p Latino hd 1080p latino.
Comentarios 0