×

¿Problemas para descargar con Mozilla, EDGE? Deshabilita la opción "Abrir vinculos en una pestaña nueva" tal como lo muestra ésta imagen.

Berlin, I Love You (2019) REMUX 1080p Subtitulado

428 vistas

Información de Berlin, I Love You (2019) REMUX 1080p Subtitulado

berlin i love you 54662 poster

Datos de la película

  • Calidad: Full 1080p
  • Audio: Ingles DTS 5.1 BLURAY
  • Subtitulos: Español Latino PGS - Ingles PGS
  • Resolución: 1920x1080p
  • Formato: MKV
  • Codec: H.264
  • Encoder: CinefiloCool
  • Mediainfo: Clic para Mostrar Datos Ver
  • Berlin In Love (2019) REMUX 1080p Subtitulado-CMHDD.mkv
    Format                      : Matroska
    Format version              : Version 4
    File size                   : 32.8 GiB
    Duration                    : 1 h 59 min
    Overall bit rate mode       : Variable
    Overall bit rate            : 39.2 Mb/s
    Movie name                  : CinemaniaHDD.Net
    Encoded date                : UTC 2019-07-02 02:55:15
    Writing application         : mkvmerge v30.1.0 ('Forever And More') 64-bit
    Writing library             : libebml v1.3.6 + libmatroska v1.4.9
    Attachments                 : CINEMANIAHD.png

    Video
    ID                          : 1
    Format                      : AVC
    Format/Info                 : Advanced Video Codec
    Format profile              : High@L4.1
    Format settings             : CABAC / 4 Ref Frames
    Format settings, CABAC      : Yes
    Format settings, ReFrames   : 4 frames
    Codec ID                    : V_MPEG4/ISO/AVC
    Duration                    : 1 h 59 min
    Bit rate mode               : Variable
    Bit rate                    : 35.4 Mb/s
    Maximum bit rate            : 37.0 Mb/s
    Width                       : 1 920 pixels
    Height                      : 1 080 pixels
    Display aspect ratio        : 16:9
    Frame rate mode             : Constant
    Frame rate                  : 23.976 (24000/1001) FPS
    Color space                 : YUV
    Chroma subsampling          : 4:2:0
    Bit depth                   : 8 bits
    Scan type                   : Progressive
    Bits/(Pixel*Frame)          : 0.713
    Stream size                 : 29.7 GiB (90%)
    Title                       : Full HD1080p [REMUX]
    Default                     : Yes
    Forced                      : No

    Audio
    ID                          : 2
    Format                      : DTS XLL
    Format/Info                 : Digital Theater Systems
    Commercial name             : DTS-HD Master Audio
    Codec ID                    : A_DTS
    Duration                    : 1 h 59 min
    Bit rate mode               : Variable
    Bit rate                    : 3 699 kb/s
    Channel(s)                  : 6 channels
    Channel layout              : C L R Ls Rs LFE
    Sampling rate               : 48.0 kHz
    Frame rate                  : 93.750 FPS (512 SPF)
    Bit depth                   : 24 bits
    Compression mode            : Lossless
    Stream size                 : 3.10 GiB (9%)
    Title                       : DTS-HD_5.1_Bluray_Eng
    Language                    : English
    Default                     : Yes
    Forced                      : No

    Text #1
    ID                          : 3
    Format                      : PGS
    Muxing mode                 : zlib
    Codec ID                    : S_HDMV/PGS
    Codec ID/Info               : Picture based subtitle format used on BDs/HD-DVDs
    Duration                    : 1 h 50 min
    Bit rate                    : 27.6 kb/s
    Count of elements           : 2536
    Stream size                 : 21.8 MiB (0%)
    Title                       : Sub_Esp [PGS]
    Language                    : Spanish
    Default                     : Yes
    Forced                      : No

    Text #2
    ID                          : 4
    Format                      : PGS
    Muxing mode                 : zlib
    Codec ID                    : S_HDMV/PGS
    Codec ID/Info               : Picture based subtitle format used on BDs/HD-DVDs
    Duration                    : 1 h 53 min
    Bit rate                    : 33.5 kb/s
    Count of elements           : 2814
    Stream size                 : 27.1 MiB (0%)
    Title                       : Sub_Eng [PGS]
    Language                    : English
    Default                     : No
    Forced                      : No

    Text #3
    ID                          : 5
    Format                      : UTF-8
    Codec ID                    : S_TEXT/UTF8
    Codec ID/Info               : UTF-8 Plain Text
    Duration                    : 1 h 50 min
    Bit rate                    : 40 b/s
    Count of elements           : 1265
    Stream size                 : 33.0 KiB (0%)
    Title                       : Sub_Esp
    Language                    : Spanish
    Default                     : No
    Forced                      : No

    Menu
    00:00:00.000                : :Chapter 01
    00:08:10.156                : :Chapter 02
    00:15:01.525                : :Chapter 03
    00:20:33.148                : :Chapter 04
    00:29:04.325                : :Chapter 05
    00:39:58.938                : :Chapter 06
    00:45:10.082                : :Chapter 07
    00:53:01.094                : :Chapter 08
    00:55:06.636                : :Chapter 09
    01:06:15.930                : :Chapter 10
    01:15:34.988                : :Chapter 11
    01:19:08.493                : :Chapter 12
    01:27:20.985                : :Chapter 13
    01:37:14.620                : :Chapter 14
    01:46:39.976                : :Chapter 15
    01:52:13.560                : :Chapter 16

  • Peso: 32.8 GiB

Sinopsis

Descargar Berlin, I Love You (2019) REMUX 1080p Subtitulado. Conjunto de cortometrajes de reconocidos directores y actores. Siguiendo la línea de «Paris, je t’aime», y otras historias de amor en ciudades como Nueva York y Río de Janeiro.

Ficha técnica

Video trailer de la película

Enlaces de descarga

Rip de Bluray

Descargar Berlin, I Love You (2019) REMUX 1080p Subtitulado




Aportes de DPeliculasHDmega la pass es:dpeliculashdmega.org Aportes de CinemaniaHD la pass es:cinemaniahdd.com
Guardado en : Drama , Remux

Películas relacionadas

  • Un mundo extraño (2022) REMUX 1080p Latino

    Un mundo extraño (2022) REMUX 1080p Latino

    2022
    Un mundo extraño (2022) REMUX 1080p Latino

    1h 42m 2022

    Descargar Un mundo extraño (2022) REMUX 1080p. Un viaje a una tierra inexplorada y traicionera en la...

    Director: Thai Bettistea

    Género: Animación

    Actores: Reed Buck

  • Stromboli (2022) NF WEB-DL 1080p Latino

    Stromboli (2022) NF WEB-DL 1080p Latino

    2022
    Stromboli (2022) NF WEB-DL 1080p Latino

    1h 26m 2022

    Descargar Stromboli (2022) NF WEB-DL 1080p Latino. Sara, una mujer que se ha divorciado recientemente,...

    Director: Michiel van Erp

    Género: Drama

    Actores: Tim McInnerny

  • Infiesto (2023) NF WEB-DL 1080p Castellano

    Infiesto (2023) NF WEB-DL 1080p Castellano

    2023
    Infiesto (2023) NF WEB-DL 1080p Castellano

    1h 36m 2023

    Descargar Infiesto (2023) NF WEB-DL 1080p Castellano. Mientras el coronavirus trastoca sus vidas, dos...

    Director: Patxi Amezcua

    Género: Crimen

    Actores: Luis Zahera

  • Espiritu Libre (2023) NF WEB-DL 1080p Latino

    Espiritu Libre (2023) NF WEB-DL 1080p Latino

    2023
    Espiritu Libre (2023) NF WEB-DL 1080p Latino

    1h 49m 2023

    Descargar Espiritu Libre (2023) NF WEB-DL 1080p Latino. La película se basa en la increíble historia...

    Director: Sarah Spillane

    Género: Aventura

    Actores: Vivien Turner

descargar Berlin, I Love You (2019) REMUX 1080p Subtitulado Full 1080p 1080p gratis, Berlin, I Love You (2019) REMUX 1080p Subtitulado Full 1080p mega 1 link, Berlin, I Love You (2019) REMUX 1080p Subtitulado Full 1080p pelicula completa, descargar Berlin, I Love You (2019) REMUX 1080p Subtitulado Full 1080p gratis en mega.

Berlin, I Love You (2019) REMUX 1080p Subtitulado pelicula full hd, Berlin, I Love You (2019) REMUX 1080p Subtitulado mega latino, Berlin, I Love You (2019) REMUX 1080p Subtitulado 4k latino, Berlin, I Love You (2019) REMUX 1080p Subtitulado pelicula completa, Berlin, I Love You (2019) REMUX 1080p Subtitulado descargar gratis, descargar Berlin, I Love You (2019) REMUX 1080p Subtitulado pelicula latino, Berlin, I Love You (2019) REMUX 1080p Subtitulado 1 link mega, Berlin, I Love You (2019) REMUX 1080p Subtitulado 1 link google drive, Berlin, I Love You (2019) REMUX 1080p Subtitulado hd 1080p latino.
Comentarios 0