×

¿Problemas para descargar con Mozilla, EDGE? Deshabilita la opción "Abrir vinculos en una pestaña nueva" tal como lo muestra ésta imagen.

Berlin, I Love You (2019) 1080p Subtitulado

789 vistas

Información de Berlin, I Love You (2019) 1080p Subtitulado

berlin i love you 54643 poster

Datos de la película

  • Calidad: Full 1080p
  • Audio: Ingles AC3 5.1 BLURAY
  • Subtitulos: Español Latino SRT - Ingles SRT
  • Resolución: 1920x1036p
  • Formato: MKV
  • Codec: H.264
  • Encoder: CinefiloCool
  • Mediainfo: Clic para Mostrar Datos Ver
  • Berlin I Love You (2019) 1080p Subtitulado-CMHDD.mkv
    Format                      : Matroska
    Format version              : Version 4
    File size                   : 3.31 GiB
    Duration                    : 1 h 59 min
    Overall bit rate            : 3 948 kb/s
    Movie name                  : CinemaniaHDD.Net
    Encoded date                : UTC 2019-07-02 16:02:54
    Writing application         : mkvmerge v30.1.0 ('Forever And More') 64-bit
    Writing library             : libebml v1.3.6 + libmatroska v1.4.9
    Attachments                 : CINEMANIAHD.png

    Video
    ID                          : 1
    Format                      : AVC
    Format/Info                 : Advanced Video Codec
    Format profile              : High@L4.1
    Format settings             : CABAC / 4 Ref Frames
    Format settings, CABAC      : Yes
    Format settings, ReFrames   : 4 frames
    Codec ID                    : V_MPEG4/ISO/AVC
    Duration                    : 1 h 59 min
    Bit rate                    : 3 500 kb/s
    Width                       : 1 920 pixels
    Height                      : 1 036 pixels
    Display aspect ratio        : 1.85:1
    Frame rate mode             : Constant
    Frame rate                  : 23.976 (24000/1001) FPS
    Color space                 : YUV
    Chroma subsampling          : 4:2:0
    Bit depth                   : 8 bits
    Scan type                   : Progressive
    Bits/(Pixel*Frame)          : 0.073
    Stream size                 : 2.93 GiB (89%)
    Title                       : HD1080p [Bluray]
    Writing library             : x264 core 157 r2935 545de2f
    Encoding settings           : cabac=1 / ref=4 / deblock=1:0:0 / analyse=0x3:0x113 / me=hex / subme=8 / psy=1 / psy_rd=1.00:0.00 / mixed_ref=1 / me_range=16 / chroma_me=1 / trellis=2 / 8x8dct=1 / cqm=0 / deadzone=21,11 / fast_pskip=1 / chroma_qp_offset=-2 / threads=32 / lookahead_threads=5 / sliced_threads=0 / nr=0 / decimate=1 / interlaced=0 / bluray_compat=0 / constrained_intra=0 / bframes=3 / b_pyramid=2 / b_adapt=1 / b_bias=0 / direct=3 / weightb=1 / open_gop=0 / weightp=2 / keyint=240 / keyint_min=24 / scenecut=40 / intra_refresh=0 / rc_lookahead=50 / rc=2pass / mbtree=1 / bitrate=3500 / ratetol=1.0 / qcomp=0.60 / qpmin=0 / qpmax=69 / qpstep=4 / cplxblur=20.0 / qblur=0.5 / vbv_maxrate=62500 / vbv_bufsize=78125 / nal_hrd=none / filler=0 / ip_ratio=1.40 / aq=1:1.00
    Default                     : Yes
    Forced                      : No
    Color range                 : Limited
    Color primaries             : BT.709
    Transfer characteristics    : BT.709
    Matrix coefficients         : BT.709

    Audio
    ID                          : 2
    Format                      : AC-3
    Format/Info                 : Audio Coding 3
    Commercial name             : Dolby Digital
    Codec ID                    : A_AC3
    Duration                    : 1 h 59 min
    Bit rate mode               : Constant
    Bit rate                    : 448 kb/s
    Channel(s)                  : 6 channels
    Channel layout              : L R C LFE Ls Rs
    Sampling rate               : 48.0 kHz
    Frame rate                  : 31.250 FPS (1536 SPF)
    Bit depth                   : 16 bits
    Compression mode            : Lossy
    Delay relative to video     : -5 ms
    Stream size                 : 384 MiB (11%)
    Title                       : AC3_5.1_Bluray_Eng
    Language                    : English
    Service kind                : Complete Main
    Default                     : Yes
    Forced                      : No

    Text #1
    ID                          : 3
    Format                      : UTF-8
    Codec ID                    : S_TEXT/UTF8
    Codec ID/Info               : UTF-8 Plain Text
    Duration                    : 1 h 50 min
    Bit rate                    : 40 b/s
    Count of elements           : 1265
    Stream size                 : 33.0 KiB (0%)
    Title                       : Sub_Esp
    Language                    : Spanish
    Default                     : Yes
    Forced                      : No

    Text #2
    ID                          : 4
    Format                      : UTF-8
    Codec ID                    : S_TEXT/UTF8
    Codec ID/Info               : UTF-8 Plain Text
    Duration                    : 1 h 53 min
    Bit rate                    : 49 b/s
    Count of elements           : 1407
    Stream size                 : 41.0 KiB (0%)
    Title                       : Sub_Eng
    Language                    : English
    Default                     : No
    Forced                      : No

    Menu
    00:00:00.000                : :Chapter 1
    00:08:10.281                : :Chapter 2
    00:15:01.526                : :Chapter 3
    00:20:33.149                : :Chapter 4
    00:29:04.326                : :Chapter 5
    00:39:59.063                : :Chapter 6
    00:45:10.208                : :Chapter 7
    00:53:01.095                : :Chapter 8
    00:55:06.637                : :Chapter 9
    01:06:16.014                : :Chapter 10
    01:15:34.989                : :Chapter 11
    01:19:08.494                : :Chapter 12
    01:27:20.986                : :Chapter 13
    01:37:14.704                : :Chapter 14
    01:46:39.977                : :Chapter 15
    01:52:13.644                : :Chapter 16

  • Peso: 3.31 GiB

Sinopsis

Descargar Berlin, I Love You (2019) 1080p Subtitulado, Mega, Google Drive. Conjunto de cortometrajes de reconocidos directores y actores. Siguiendo la línea de «Paris, je t’aime», y otras historias de amor en ciudades como Nueva York y Río de Janeiro.

Ficha técnica

Video trailer de la película

Enlaces de descarga

Rip de Bluray

Descargar Berlin, I Love You (2019) 1080p Subtitulado




Aportes de DPeliculasHDmega la pass es:dpeliculashdmega.org Aportes de CinemaniaHD la pass es:cinemaniahdd.com Aportes recientes:cinemaniahdd.net
Guardado en : Drama , HD 1080p

Películas relacionadas

descargar Berlin, I Love You (2019) 1080p Subtitulado Full 1080p 1080p gratis, Berlin, I Love You (2019) 1080p Subtitulado Full 1080p mega 1 link, Berlin, I Love You (2019) 1080p Subtitulado Full 1080p pelicula completa, descargar Berlin, I Love You (2019) 1080p Subtitulado Full 1080p gratis en mega.

Berlin, I Love You (2019) 1080p Subtitulado pelicula full hd, Berlin, I Love You (2019) 1080p Subtitulado mega latino, Berlin, I Love You (2019) 1080p Subtitulado 4k latino, Berlin, I Love You (2019) 1080p Subtitulado pelicula completa, Berlin, I Love You (2019) 1080p Subtitulado descargar gratis, descargar Berlin, I Love You (2019) 1080p Subtitulado pelicula latino, Berlin, I Love You (2019) 1080p Subtitulado 1 link mega, Berlin, I Love You (2019) 1080p Subtitulado 1 link google drive, Berlin, I Love You (2019) 1080p Subtitulado hd 1080p latino.
Comentarios 0