×

¿Problemas para descargar con Mozilla, EDGE? Deshabilita la opción "Abrir vinculos en una pestaña nueva" tal como lo muestra ésta imagen.

El curioso caso de Benjamin Button (2008) REMUX 1080p Latino

275 vistas

Información de El curioso caso de Benjamin Button (2008) REMUX 1080p Latino

Datos de la película

  • Calidad: Full 1080p
  • Audio: Español Latino AC3 5.1 BLURAY - Ingles DTS 5.1 BLURAY
  • Subtitulos: Español Latino PGS - Ingles PGS
  • Resolución: 1920x1080p
  • Formato: MKV
  • Codec: H.264
  • Encoder: CinefiloCool
  • Mediainfo: Clic para Mostrar Datos Ver
  • El Curioso Caso De Benjamin Button (2008) REMUX 1080p Latino-CMHDD.mkv
    Format                      : Matroska
    Format version              : Version 4
    File size                   : 40.7 GiB
    Duration                    : 2 h 46 min
    Overall bit rate mode       : Variable
    Overall bit rate            : 35.1 Mb/s
    Movie name                  : The Curious Case of Benjamin Button (2008) CinemaniaHDD.Net
    Encoded date                : UTC 2021-03-03 10:15:48
    Writing application         : mkvmerge v51.0.0 ('I Wish') 64-bit
    Writing library             : libebml v1.4.0 + libmatroska v1.6.2
    Attachments                 : CINEMANIAHD.png

    Video
    ID                          : 1
    Format                      : AVC
    Format/Info                 : Advanced Video Codec
    Format profile              : High@L4.1
    Format settings             : CABAC / 4 Ref Frames
    Format settings, CABAC      : Yes
    Format settings, Reference  : 4 frames
    Format settings, GOP        : M=3, N=12
    Codec ID                    : V_MPEG4/ISO/AVC
    Duration                    : 2 h 46 min
    Bit rate mode               : Variable
    Bit rate                    : 30.9 Mb/s
    Maximum bit rate            : 37.0 Mb/s
    Width                       : 1 920 pixels
    Height                      : 1 080 pixels
    Display aspect ratio        : 16:9
    Frame rate mode             : Constant
    Frame rate                  : 23.976 (24000/1001) FPS
    Color space                 : YUV
    Chroma subsampling          : 4:2:0
    Bit depth                   : 8 bits
    Scan type                   : Progressive
    Bits/(Pixel*Frame)          : 0.621
    Stream size                 : 35.8 GiB (88%)
    Title                       : REMUX HD1080p [CinemaniaHDD]
    Language                    : English
    Default                     : Yes
    Forced                      : No
    Color range                 : Limited
    Color primaries             : BT.709
    Transfer characteristics    : BT.709
    Matrix coefficients         : BT.709

    Audio #1
    ID                          : 2
    Format                      : AC-3
    Format/Info                 : Audio Coding 3
    Commercial name             : Dolby Digital
    Codec ID                    : A_AC3
    Duration                    : 2 h 46 min
    Bit rate mode               : Constant
    Bit rate                    : 640 kb/s
    Channel(s)                  : 6 channels
    Channel layout              : L R C LFE Ls Rs
    Sampling rate               : 48.0 kHz
    Frame rate                  : 31.250 FPS (1536 SPF)
    Compression mode            : Lossy
    Stream size                 : 760 MiB (2%)
    Title                       : Español Latino [CinemaniaHDD]
    Language                    : Spanish
    Service kind                : Complete Main
    Default                     : Yes
    Forced                      : No

    Audio #2
    ID                          : 3
    Format                      : DTS XLL
    Format/Info                 : Digital Theater Systems
    Commercial name             : DTS-HD Master Audio
    Codec ID                    : A_DTS
    Duration                    : 2 h 46 min
    Bit rate mode               : Variable
    Bit rate                    : 3 588 kb/s
    Channel(s)                  : 6 channels
    Channel layout              : C L R Ls Rs LFE
    Sampling rate               : 48.0 kHz
    Frame rate                  : 93.750 FPS (512 SPF)
    Bit depth                   : 24 bits
    Compression mode            : Lossless
    Stream size                 : 4.16 GiB (10%)
    Title                       : Ingles [CinemaniaHDD]
    Language                    : English
    Default                     : No
    Forced                      : No

    Text #1
    ID                          : 4
    Format                      : PGS
    Muxing mode                 : zlib
    Codec ID                    : S_HDMV/PGS
    Codec ID/Info               : Picture based subtitle format used on BDs/HD-DVDs
    Duration                    : 2 h 39 min
    Bit rate                    : 27.8 kb/s
    Count of elements           : 3556
    Stream size                 : 31.8 MiB (0%)
    Title                       : Español-PGS [CinemaniaHDD]
    Language                    : Spanish
    Default                     : No
    Forced                      : No

    Text #2
    ID                          : 5
    Format                      : PGS
    Muxing mode                 : zlib
    Codec ID                    : S_HDMV/PGS
    Codec ID/Info               : Picture based subtitle format used on BDs/HD-DVDs
    Duration                    : 2 h 38 min
    Bit rate                    : 31.0 kb/s
    Count of elements           : 3612
    Stream size                 : 35.1 MiB (0%)
    Title                       : Ingles-PGS [CinemaniaHDD]
    Language                    : Spanish
    Default                     : No
    Forced                      : No

    Text #3
    ID                          : 6
    Format                      : UTF-8
    Codec ID                    : S_TEXT/UTF8
    Codec ID/Info               : UTF-8 Plain Text
    Duration                    : 2 h 11 min
    Bit rate                    : 0 b/s
    Count of elements           : 5
    Stream size                 : 128 Bytes (0%)
    Title                       : Forzados-SRT [CinemaniaHDD]
    Language                    : Spanish
    Default                     : Yes
    Forced                      : No

    Text #4
    ID                          : 7
    Format                      : UTF-8
    Codec ID                    : S_TEXT/UTF8
    Codec ID/Info               : UTF-8 Plain Text
    Duration                    : 2 h 39 min
    Bit rate                    : 52 b/s
    Count of elements           : 1778
    Stream size                 : 61.0 KiB (0%)
    Title                       : Español-SRT [CinemaniaHDD]
    Language                    : Spanish
    Default                     : No
    Forced                      : No

    Menu
    00:00:00.000                : en:Mr Grateau's Clock
    00:06:23.466                : en:Benjamin's Diary
    00:17:54.448                : en:"You Never Know What's Coming for You"
    00:31:11.953                : en:Daisy
    00:41:32.407                : en:Nights to Remember
    00:59:20.140                : en:Winter Palace Hotel
    01:16:41.764                : en:Off to War
    01:24:23.684                : en:Kismet
    01:35:07.952                : en:Mr Thomas Button
    01:44:37.521                : en:"Never Far From My Thoughts"
    01:51:44.656                : en:Collision Course
    01:59:22.614                : en:When It Was Supposed to Happen
    02:11:24.960                : en:Meeting in the Middle
    02:21:33.777                : en:Postcards
    02:31:12.021                : en:Good Night, Benjamin
    02:39:16.172                : en:End Credits

  • Peso: 40.7 GiB

Sinopsis

Descargar El curioso caso de Benjamin Button (2008) REMUX 1080p Latino. Un hombre (Brad Pitt) nace con ochenta años y va rejuveneciendo a medida que pasa el tiempo, es decir, en lugar de cumplir años los descumple. Ésta es la historia de un hombre extraordinario, de la gentes que va conociendo, de sus amores, pero sobre todo de su relación con Daisy (Cate Blanchett).

Ficha técnica

Video trailer de la película

Enlaces de descarga

Rip de Bluray

Descargar El curioso caso de Benjamin Button (2008) REMUX 1080p Latino




Aportes de DPeliculasHDmega la pass es:dpeliculashdmega.org Aportes de CinemaniaHD la pass es:cinemaniahdd.com
Guardado en : Drama , Fantasía , Remux , Romance

Películas relacionadas

descargar El curioso caso de Benjamin Button (2008) REMUX 1080p Latino Full 1080p 1080p gratis, El curioso caso de Benjamin Button (2008) REMUX 1080p Latino Full 1080p mega 1 link, El curioso caso de Benjamin Button (2008) REMUX 1080p Latino Full 1080p pelicula completa, descargar El curioso caso de Benjamin Button (2008) REMUX 1080p Latino Full 1080p gratis en mega.

El curioso caso de Benjamin Button (2008) REMUX 1080p Latino pelicula full hd, El curioso caso de Benjamin Button (2008) REMUX 1080p Latino mega latino, El curioso caso de Benjamin Button (2008) REMUX 1080p Latino 4k latino, El curioso caso de Benjamin Button (2008) REMUX 1080p Latino pelicula completa, El curioso caso de Benjamin Button (2008) REMUX 1080p Latino descargar gratis, descargar El curioso caso de Benjamin Button (2008) REMUX 1080p Latino pelicula latino, El curioso caso de Benjamin Button (2008) REMUX 1080p Latino 1 link mega, El curioso caso de Benjamin Button (2008) REMUX 1080p Latino 1 link google drive, El curioso caso de Benjamin Button (2008) REMUX 1080p Latino hd 1080p latino.
Comentarios 0