×

¿Problemas para descargar con Mozilla, EDGE? Deshabilita la opción "Abrir vinculos en una pestaña nueva" tal como lo muestra ésta imagen.

Ben-Hur (1959) [Multi-Doblaje] WEB-DL 1080p Latino

466 vistas

Información de Ben-Hur (1959) [Multi-Doblaje] WEB-DL 1080p Latino

Datos de la película

  • Calidad: 1080p
  • Audio: Se especifica abajo de la Sinopsis
  • Subtitulos: Español Latino SRT- FORZADOS SRT
  • Resolución: 1920x1080
  • Formato: MKV
  • Codec: H.264
  • Encoder: cinemaniahdd
  • Mediainfo: Clic para Mostrar Datos Ver
  • Ben-Hur (1959) [Multi-Doblaje] WEB-DL 1080p Latino [CNMNHDD].mkv
    Format                      : Matroska
    Format version              : Version 4
    File size                   : 15.1 GiB
    Duration                    : 3 h 42 min
    Overall bit rate mode       : Variable
    Overall bit rate            : 9 754 kb/s
    Movie name                  : Ben-Hur (1959) - CinemaniaHDD.Net
    Encoded date                : UTC 2022-05-17 02:25:13
    Writing application         : mkvmerge v56.1.0 ('My Friend') 64-bit
    Writing library             : libebml v1.4.2 + libmatroska v1.6.4

    Video
    ID                          : 1
    Format                      : AVC
    Format/Info                 : Advanced Video Codec
    Format profile              : High@L4
    Format settings             : CABAC / 4 Ref Frames
    Format settings, CABAC      : Yes
    Format settings, Reference  : 4 frames
    Codec ID                    : V_MPEG4/ISO/AVC
    Duration                    : 3 h 42 min
    Bit rate mode               : Variable
    Bit rate                    : 8 250 kb/s
    Maximum bit rate            : 12.4 Mb/s
    Width                       : 1 920 pixels
    Height                      : 816 pixels
    Display aspect ratio        : 2.35:1
    Frame rate mode             : Constant
    Frame rate                  : 23.976 (24000/1001) FPS
    Color space                 : YUV
    Chroma subsampling          : 4:2:0
    Bit depth                   : 8 bits
    Scan type                   : Progressive
    Bits/(Pixel*Frame)          : 0.220
    Stream size                 : 12.8 GiB (84%)
    Title                       : CinemaniaHDD
    Writing library             : x264 core 157 r2965 861cec4
    Encoding settings           : cabac=1 / ref=4 / deblock=1:0:0 / analyse=0x3:0x113 / me=hex / subme=7 / psy=1 / psy_rd=1.00:0.00 / mixed_ref=1 / me_range=16 / chroma_me=1 / trellis=1 / 8x8dct=1 / cqm=0 / deadzone=21,11 / fast_pskip=1 / chroma_qp_offset=-2 / threads=25 / lookahead_threads=4 / sliced_threads=0 / nr=0 / decimate=1 / interlaced=0 / bluray_compat=0 / constrained_intra=0 / bframes=3 / b_pyramid=2 / b_adapt=1 / b_bias=0 / direct=1 / weightb=1 / open_gop=0 / weightp=2 / keyint=96 / keyint_min=96 / scenecut=40 / intra_refresh=0 / rc_lookahead=40 / rc=2pass / mbtree=1 / bitrate=8250 / ratetol=1.0 / qcomp=0.60 / qpmin=0 / qpmax=69 / qpstep=4 / cplxblur=20.0 / qblur=0.5 / vbv_maxrate=12375 / vbv_bufsize=6187 / nal_hrd=vbr / filler=0 / ip_ratio=1.40 / aq=1:1.00
    Default                     : Yes
    Forced                      : No
    Color range                 : Limited
    Color primaries             : BT.709
    Transfer characteristics    : BT.709
    Matrix coefficients         : BT.709

    Audio #1
    ID                          : 2
    Format                      : AC-3
    Format/Info                 : Audio Coding 3
    Commercial name             : Dolby Digital
    Codec ID                    : A_AC3
    Duration                    : 3 h 42 min
    Bit rate mode               : Constant
    Bit rate                    : 384 kb/s
    Channel(s)                  : 2 channels
    Channel layout              : L R
    Sampling rate               : 48.0 kHz
    Frame rate                  : 31.250 FPS (1536 SPF)
    Compression mode            : Lossy
    Stream size                 : 611 MiB (4%)
    Title                       : Español Latino [Segundo Doblaje]
    Language                    : Spanish
    Service kind                : Complete Main
    Default                     : Yes
    Forced                      : No

    Audio #2
    ID                          : 3
    Format                      : AC-3
    Format/Info                 : Audio Coding 3
    Commercial name             : Dolby Digital
    Codec ID                    : A_AC3
    Duration                    : 3 h 42 min
    Bit rate mode               : Constant
    Bit rate                    : 384 kb/s
    Channel(s)                  : 2 channels
    Channel layout              : L R
    Sampling rate               : 48.0 kHz
    Frame rate                  : 31.250 FPS (1536 SPF)
    Compression mode            : Lossy
    Stream size                 : 611 MiB (4%)
    Title                       : Español Latino [Tercer Doblaje]
    Language                    : Spanish
    Service kind                : Complete Main
    Default                     : No
    Forced                      : No

    Audio #3
    ID                          : 4
    Format                      : AC-3
    Format/Info                 : Audio Coding 3
    Commercial name             : Dolby Digital
    Codec ID                    : A_AC3
    Duration                    : 3 h 42 min
    Bit rate mode               : Constant
    Bit rate                    : 384 kb/s
    Channel(s)                  : 2 channels
    Channel layout              : L R
    Sampling rate               : 48.0 kHz
    Frame rate                  : 31.250 FPS (1536 SPF)
    Compression mode            : Lossy
    Stream size                 : 611 MiB (4%)
    Title                       : Brazilian Portuguese
    Language                    : Portuguese
    Service kind                : Complete Main
    Default                     : No
    Forced                      : No

    Audio #4
    ID                          : 5
    Format                      : AC-3
    Format/Info                 : Audio Coding 3
    Commercial name             : Dolby Digital
    Codec ID                    : A_AC3
    Duration                    : 3 h 42 min
    Bit rate mode               : Constant
    Bit rate                    : 384 kb/s
    Channel(s)                  : 2 channels
    Channel layout              : L R
    Sampling rate               : 48.0 kHz
    Frame rate                  : 31.250 FPS (1536 SPF)
    Compression mode            : Lossy
    Stream size                 : 611 MiB (4%)
    Title                       : English
    Language                    : English
    Service kind                : Complete Main
    Default                     : No
    Forced                      : No

    Text #1
    ID                          : 6
    Format                      : UTF-8
    Codec ID                    : S_TEXT/UTF8
    Codec ID/Info               : UTF-8 Plain Text
    Duration                    : 2 h 21 min
    Bit rate                    : 0 b/s
    Count of elements           : 4
    Stream size                 : 79.0 Bytes (0%)
    Title                       : Español Latino (Forced)
    Language                    : Spanish
    Default                     : Yes
    Forced                      : Yes

    Text #2
    ID                          : 7
    Format                      : UTF-8
    Codec ID                    : S_TEXT/UTF8
    Codec ID/Info               : UTF-8 Plain Text
    Duration                    : 3 h 40 min
    Bit rate                    : 28 b/s
    Count of elements           : 1540
    Stream size                 : 46.7 KiB (0%)
    Title                       : Español Latino
    Language                    : Spanish
    Default                     : No
    Forced                      : No

    Text #3
    ID                          : 8
    Format                      : UTF-8
    Codec ID                    : S_TEXT/UTF8
    Codec ID/Info               : UTF-8 Plain Text
    Duration                    : 3 h 40 min
    Bit rate                    : 29 b/s
    Count of elements           : 1353
    Stream size                 : 47.1 KiB (0%)
    Title                       : Brazilian Portuguese
    Language                    : Portuguese
    Default                     : No
    Forced                      : No

    Text #4
    ID                          : 9
    Format                      : UTF-8
    Codec ID                    : S_TEXT/UTF8
    Codec ID/Info               : UTF-8 Plain Text
    Duration                    : 3 h 33 min
    Bit rate                    : 31 b/s
    Count of elements           : 1608
    Stream size                 : 48.7 KiB (0%)
    Title                       : English (SDH)
    Language                    : English
    Default                     : No
    Forced                      : No

     

  • Peso: 15.1 GiB

Sinopsis

Antigua Roma, bajo el reinado de los emperadores Augusto y Tiberio (s. I d.C.). Judá Ben-Hur, hijo de una familia noble de Jerusalén, y Mesala, tribuno romano que dirige los ejércitos de ocupación, son dos antiguos amigos, pero un accidente involuntario los convierte en enemigos irreconciliables: Ben-Hur es acusado de atentar contra la vida del nuevo gobernador romano, y Mesala lo encarcela a él y a su familia. Mientras Ben-Hur es trasladado a galeras para cumplir su condena, un hombre llamado Jesús de Nazaret se apiada de él y le da de beber. En galeras conocerá al comandante de la nave y más tarde a un jeque árabe que participa con sus magníficos caballos en carreras de cuadrigas.

Español Latino [Segundo Doblaje] AC3 2.0 – Español Latino [Tercer Doblaje] AC3 2.0 – Portugues AC3 2.0 – Ingles AC3 2.0

Ficha técnica

Video trailer de la película

Enlaces de descarga

Rip de Bluray

Descargar Ben-Hur (1959) [Multi-Doblaje] WEB-DL 1080p Latino




Aportes de DPeliculasHDmega la pass es:dpeliculashdmega.org Aportes de CinemaniaHD la pass es:cinemaniahdd.com
Guardado en : Acción , Drama , Historia

Películas relacionadas

descargar Ben-Hur (1959) [Multi-Doblaje] WEB-DL 1080p Latino 1080p 1080p gratis, Ben-Hur (1959) [Multi-Doblaje] WEB-DL 1080p Latino 1080p mega 1 link, Ben-Hur (1959) [Multi-Doblaje] WEB-DL 1080p Latino 1080p pelicula completa, descargar Ben-Hur (1959) [Multi-Doblaje] WEB-DL 1080p Latino 1080p gratis en mega.

Ben-Hur (1959) [Multi-Doblaje] WEB-DL 1080p Latino pelicula full hd, Ben-Hur (1959) [Multi-Doblaje] WEB-DL 1080p Latino mega latino, Ben-Hur (1959) [Multi-Doblaje] WEB-DL 1080p Latino 4k latino, Ben-Hur (1959) [Multi-Doblaje] WEB-DL 1080p Latino pelicula completa, Ben-Hur (1959) [Multi-Doblaje] WEB-DL 1080p Latino descargar gratis, descargar Ben-Hur (1959) [Multi-Doblaje] WEB-DL 1080p Latino pelicula latino, Ben-Hur (1959) [Multi-Doblaje] WEB-DL 1080p Latino 1 link mega, Ben-Hur (1959) [Multi-Doblaje] WEB-DL 1080p Latino 1 link google drive, Ben-Hur (1959) [Multi-Doblaje] WEB-DL 1080p Latino hd 1080p latino.
Comentarios 0