×

¿Problemas para descargar con Mozilla, EDGE? Deshabilita la opción "Abrir vinculos en una pestaña nueva" tal como lo muestra ésta imagen.

Ben-Hur (1959) [Multi-Doblaje] REMUX 1080p Latino

376 vistas

Información de Ben-Hur (1959) [Multi-Doblaje] REMUX 1080p Latino

Datos de la película

  • Calidad: Full 1080p
  • Audio: Se especifica abajo de la Sinopsis
  • Subtitulos: Español Latino SRT- FORZADOS SRT
  • Resolución: 1920x1080
  • Formato: MKV
  • Codec: H.264
  • Encoder: cinemaniahdd
  • Mediainfo: Clic para Mostrar Datos Ver
  • Ben-Hur (1959) REMUX 1080p Latino [CNMNHDD].mkv
    Format                      : Matroska
    Format version              : Version 4
    File size                   : 51.3 GiB
    Duration                    : 3 h 42 min
    Overall bit rate mode       : Variable
    Overall bit rate            : 33.0 Mb/s
    Movie name                  : Ben-Hur (1959) REMUX - CinemaniaHDD.Net
    Encoded date                : UTC 2022-05-19 00:31:56
    Writing application         : mkvmerge v56.1.0 ('My Friend') 64-bit
    Writing library             : libebml v1.4.2 + libmatroska v1.6.4

    Video
    ID                          : 1
    Format                      : AVC
    Format/Info                 : Advanced Video Codec
    Format profile              : High@L4.1
    Format settings             : CABAC / 2 Ref Frames
    Format settings, CABAC      : Yes
    Format settings, Reference  : 2 frames
    Codec ID                    : V_MPEG4/ISO/AVC
    Duration                    : 3 h 42 min
    Bit rate mode               : Variable
    Bit rate                    : 27.9 Mb/s
    Width                       : 1 920 pixels
    Height                      : 1 080 pixels
    Display aspect ratio        : 16:9
    Frame rate mode             : Constant
    Frame rate                  : 23.976 (24000/1001) FPS
    Color space                 : YUV
    Chroma subsampling          : 4:2:0
    Bit depth                   : 8 bits
    Scan type                   : Progressive
    Bits/(Pixel*Frame)          : 0.560
    Stream size                 : 43.3 GiB (84%)
    Title                       : CinemaniaHDD
    Default                     : Yes
    Forced                      : No

    Audio #1
    ID                          : 2
    Format                      : AC-3
    Format/Info                 : Audio Coding 3
    Commercial name             : Dolby Digital
    Codec ID                    : A_AC3
    Duration                    : 3 h 42 min
    Bit rate mode               : Constant
    Bit rate                    : 384 kb/s
    Channel(s)                  : 2 channels
    Channel layout              : L R
    Sampling rate               : 48.0 kHz
    Frame rate                  : 31.250 FPS (1536 SPF)
    Compression mode            : Lossy
    Stream size                 : 611 MiB (1%)
    Title                       : Español Latino [Segundo Doblaje]
    Language                    : Spanish
    Service kind                : Complete Main
    Default                     : Yes
    Forced                      : No

    Audio #2
    ID                          : 3
    Format                      : AC-3
    Format/Info                 : Audio Coding 3
    Commercial name             : Dolby Digital
    Codec ID                    : A_AC3
    Duration                    : 3 h 42 min
    Bit rate mode               : Constant
    Bit rate                    : 384 kb/s
    Channel(s)                  : 2 channels
    Channel layout              : L R
    Sampling rate               : 48.0 kHz
    Frame rate                  : 31.250 FPS (1536 SPF)
    Compression mode            : Lossy
    Stream size                 : 611 MiB (1%)
    Title                       : Español Latino [Tercer Doblaje]
    Language                    : Spanish
    Service kind                : Complete Main
    Default                     : No
    Forced                      : No

    Audio #3
    ID                          : 4
    Format                      : DTS XLL
    Format/Info                 : Digital Theater Systems
    Commercial name             : DTS-HD Master Audio
    Codec ID                    : A_DTS
    Duration                    : 3 h 42 min
    Bit rate mode               : Variable
    Bit rate                    : 3 549 kb/s
    Channel(s)                  : 6 channels
    Channel layout              : C L R Ls Rs LFE
    Sampling rate               : 48.0 kHz
    Frame rate                  : 93.750 FPS (512 SPF)
    Bit depth                   : 24 bits
    Compression mode            : Lossless
    Stream size                 : 5.51 GiB (11%)
    Title                       : DTS-HD MA 5.1
    Language                    : English
    Default                     : No
    Forced                      : No

    Audio #4
    ID                          : 5
    Format                      : AC-3
    Format/Info                 : Audio Coding 3
    Commercial name             : Dolby Digital
    Codec ID                    : A_AC3
    Duration                    : 3 h 42 min
    Bit rate mode               : Constant
    Bit rate                    : 640 kb/s
    Channel(s)                  : 6 channels
    Channel layout              : L R C LFE Ls Rs
    Sampling rate               : 48.0 kHz
    Frame rate                  : 31.250 FPS (1536 SPF)
    Compression mode            : Lossy
    Stream size                 : 1 018 MiB (2%)
    Title                       : English
    Service kind                : Complete Main
    Default                     : No
    Forced                      : No

    Audio #5
    ID                          : 6
    Format                      : AC-3
    Format/Info                 : Audio Coding 3
    Commercial name             : Dolby Digital
    Format settings             : Dolby Surround
    Codec ID                    : A_AC3
    Duration                    : 3 h 42 min
    Bit rate mode               : Constant
    Bit rate                    : 192 kb/s
    Channel(s)                  : 2 channels
    Channel layout              : L R
    Sampling rate               : 48.0 kHz
    Frame rate                  : 31.250 FPS (1536 SPF)
    Compression mode            : Lossy
    Stream size                 : 306 MiB (1%)
    Title                       : Commentary by film historian T. Gene Hatcher and star Charlton Heston
    Language                    : English
    Service kind                : Complete Main
    Default                     : No
    Forced                      : No

    Text #1
    ID                          : 7
    Format                      : UTF-8
    Codec ID                    : S_TEXT/UTF8
    Codec ID/Info               : UTF-8 Plain Text
    Duration                    : 2 h 22 min
    Bit rate                    : 0 b/s
    Count of elements           : 4
    Stream size                 : 79.0 Bytes (0%)
    Title                       : Español Latino (Forced)
    Language                    : Spanish
    Default                     : Yes
    Forced                      : Yes

    Text #2
    ID                          : 8
    Format                      : UTF-8
    Codec ID                    : S_TEXT/UTF8
    Codec ID/Info               : UTF-8 Plain Text
    Duration                    : 3 h 40 min
    Bit rate                    : 28 b/s
    Count of elements           : 1540
    Stream size                 : 46.7 KiB (0%)
    Title                       : Español Latino
    Language                    : Spanish
    Default                     : No
    Forced                      : No

    Text #3
    ID                          : 9
    Format                      : UTF-8
    Codec ID                    : S_TEXT/UTF8
    Codec ID/Info               : UTF-8 Plain Text
    Duration                    : 3 h 40 min
    Bit rate                    : 29 b/s
    Count of elements           : 1353
    Stream size                 : 47.1 KiB (0%)
    Title                       : Brazilian Portuguese
    Language                    : Portuguese
    Default                     : No
    Forced                      : No

    Text #4
    ID                          : 10
    Format                      : UTF-8
    Codec ID                    : S_TEXT/UTF8
    Codec ID/Info               : UTF-8 Plain Text
    Duration                    : 3 h 33 min
    Bit rate                    : 31 b/s
    Count of elements           : 1608
    Stream size                 : 48.7 KiB (0%)
    Title                       : English (SDH)
    Language                    : English
    Default                     : No
    Forced                      : No

    Text #5
    ID                          : 11
    Format                      : PGS
    Muxing mode                 : zlib
    Codec ID                    : S_HDMV/PGS
    Codec ID/Info               : Picture based subtitle format used on BDs/HD-DVDs
    Duration                    : 3 h 42 min
    Bit rate                    : 15.6 kb/s
    Count of elements           : 3082
    Stream size                 : 24.8 MiB (0%)
    Title                       : Spanish (Latin American)
    Language                    : Spanish
    Default                     : No
    Forced                      : No

    Text #6
    ID                          : 12
    Format                      : PGS
    Muxing mode                 : zlib
    Codec ID                    : S_HDMV/PGS
    Codec ID/Info               : Picture based subtitle format used on BDs/HD-DVDs
    Duration                    : 3 h 42 min
    Bit rate                    : 15.8 kb/s
    Count of elements           : 2708
    Stream size                 : 25.2 MiB (0%)
    Title                       : Portuguese (Brazilian)
    Language                    : Portuguese
    Default                     : No
    Forced                      : No

    Text #7
    ID                          : 13
    Format                      : PGS
    Muxing mode                 : zlib
    Codec ID                    : S_HDMV/PGS
    Codec ID/Info               : Picture based subtitle format used on BDs/HD-DVDs
    Duration                    : 3 h 35 min
    Bit rate                    : 17.9 kb/s
    Count of elements           : 3380
    Stream size                 : 27.6 MiB (0%)
    Title                       : English (SDH)
    Language                    : English
    Default                     : No
    Forced                      : No

    Menu
    00:00:00.000                : :Overture
    00:06:30.390                : :Nativity Prologue
    00:11:37.697                : :Credits
    00:13:45.533                : :March Through Nazareth
    00:16:00.960                : :Messala in Command
    00:17:59.453                : :Fighting an Idea
    00:21:36.504                : :Still Close in Every Way
    00:25:17.516                : :A Toast
    00:28:43.847                : :Gifts Exchanged
    00:31:20.879                : :Judah's Choice
    00:36:35.652                : :Esther's Request
    00:40:36.976                : :A Ring for a Kiss
    00:45:12.126                : :March Into Jerusalem
    00:48:02.088                : :The Accident
    00:51:43.892                : :Jailbreak Attempt
    00:54:29.391                : :Making an Example
    00:58:05.482                : :Bondage
    01:01:07.539                : :Water From a Stranger
    01:05:41.437                : :Quintus Arrius
    01:10:16.379                : :Ramming Speed
    01:14:07.151                : :Strange, Stubborn Faith
    01:17:23.681                : :Sea Battle Begins
    01:21:23.462                : :Galley Rescues
    01:24:14.216                : :Saving Arrius
    01:26:19.216                : :Victory
    01:30:43.855                : :The Divine Emperor
    01:34:25.285                : :A Son of Arrius
    01:38:33.658                : :Thinking of Judea
    01:41:17.154                : :Balthazar and Ilderim
    01:45:41.293                : :Arabians Night
    01:50:22.616                : :Many Paths to God
    01:54:02.711                : :Homecoming
    01:58:09.040                : :Survivors Reunited
    02:02:30.385                : :"We Stood Here Before"
    02:06:12.148                : :Confronting Messala
    02:10:20.688                : :Finding Miriam and Tirzah
    02:12:48.043                : :Vow in the Darkness
    02:18:52.366                : :"Forget Messala"
    02:21:18.970                : :Intermission
    02:21:52.768                : :Entr'acte
    02:25:40.370                : :A wager
    02:30:28.867                : :Chariot practice
    02:32:41.333                : :"This is the day."
    02:36:58.840                : :Chariot procession
    02:40:33.179                : :Entrants
    02:42:33.549                : :Early eliminations
    02:47:03.235                : :Neck and neck
    02:50:54.425                : :Fallen driver
    02:52:31.772                : :Judah triumphant
    02:54:36.271                : :The race goes on
    03:00:05.308                : :Valley of the lepers
    03:02:21.194                : :"Is Judah well?"
    03:06:50.672                : :Thirsty still
    03:10:32.518                : :"I am Judah Ben-Hur"
    03:14:27.586                : :Becoming Messala
    03:18:39.296                : :Recovering Miriam and Tirzah
    03:24:05.997                : :Young Rabbi sentenced
    03:27:18.565                : :Offer of water
    03:31:33.695                : :The crucifixion
    03:34:38.629                : :Cleansing rain
    03:39:24.165                : :"Hallellujah!"

     

  • Peso: 51.3 GiB

Sinopsis

Antigua Roma, bajo el reinado de los emperadores Augusto y Tiberio (s. I d.C.). Judá Ben-Hur, hijo de una familia noble de Jerusalén, y Mesala, tribuno romano que dirige los ejércitos de ocupación, son dos antiguos amigos, pero un accidente involuntario los convierte en enemigos irreconciliables: Ben-Hur es acusado de atentar contra la vida del nuevo gobernador romano, y Mesala lo encarcela a él y a su familia. Mientras Ben-Hur es trasladado a galeras para cumplir su condena, un hombre llamado Jesús de Nazaret se apiada de él y le da de beber. En galeras conocerá al comandante de la nave y más tarde a un jeque árabe que participa con sus magníficos caballos en carreras de cuadrigas.

Español Latino [Segundo Doblaje] AC3 2.0 – Español Latino [Tercer Doblaje] AC3 2.0 – Portugues AC3 2.0 – Ingles AC3 5.1

Ficha técnica

Video trailer de la película

Enlaces de descarga

Rip de Bluray

Descargar Ben-Hur (1959) [Multi-Doblaje] REMUX 1080p Latino


Aportes de DPeliculasHDmega la pass es:dpeliculashdmega.org Aportes de CinemaniaHD la pass es:cinemaniahdd.com
Guardado en : Acción , Drama , Historia , Remux

Películas relacionadas

descargar Ben-Hur (1959) [Multi-Doblaje] REMUX 1080p Latino Full 1080p 1080p gratis, Ben-Hur (1959) [Multi-Doblaje] REMUX 1080p Latino Full 1080p mega 1 link, Ben-Hur (1959) [Multi-Doblaje] REMUX 1080p Latino Full 1080p pelicula completa, descargar Ben-Hur (1959) [Multi-Doblaje] REMUX 1080p Latino Full 1080p gratis en mega.

Ben-Hur (1959) [Multi-Doblaje] REMUX 1080p Latino pelicula full hd, Ben-Hur (1959) [Multi-Doblaje] REMUX 1080p Latino mega latino, Ben-Hur (1959) [Multi-Doblaje] REMUX 1080p Latino 4k latino, Ben-Hur (1959) [Multi-Doblaje] REMUX 1080p Latino pelicula completa, Ben-Hur (1959) [Multi-Doblaje] REMUX 1080p Latino descargar gratis, descargar Ben-Hur (1959) [Multi-Doblaje] REMUX 1080p Latino pelicula latino, Ben-Hur (1959) [Multi-Doblaje] REMUX 1080p Latino 1 link mega, Ben-Hur (1959) [Multi-Doblaje] REMUX 1080p Latino 1 link google drive, Ben-Hur (1959) [Multi-Doblaje] REMUX 1080p Latino hd 1080p latino.
Comentarios 0