×

¿Problemas para descargar con Mozilla, EDGE? Deshabilita la opción "Abrir vinculos en una pestaña nueva" tal como lo muestra ésta imagen.

Belong To Us (2018) Web-DL 1080p Latino

1.247 vistas

Información de Belong To Us (2018) Web-DL 1080p Latino

Datos de la película

  • Calidad: WEBDL
  • Audio: Español Latino AC3 2.0 iTunes - Ingles AC3 5.1 iTunes
  • Subtitulos: Español Latino SRT - Ingles SRT
  • Resolución: 1920x810p
  • Formato: MKV
  • Codec: H.264
  • Encoder: CinemaniaHD
  • Mediainfo: Clic para Mostrar Datos Ver
  • Belong To Us (2018) Web-DL 1080p Latino-CMHDD.mkv
    Format                      : Matroska
    Format version              : Version 4
    File size                   : 3.04 GiB
    Duration                    : 1 h 23 min
    Overall bit rate            : 5 200 kb/s
    Movie name                  : CinemaniaHDD.Net
    Encoded date                : UTC 2020-02-22 15:21:29
    Writing application         : mkvmerge v42.0.0 ('Overtime') 64-bit
    Writing library             : libebml v1.3.10 + libmatroska v1.5.2
    Attachments                 : CINEMANIAHD.png

    Video
    ID                          : 1
    Format                      : AVC
    Format/Info                 : Advanced Video Codec
    Format profile              : High@L4
    Format settings             : CABAC / 5 Ref Frames
    Format settings, CABAC      : Yes
    Format settings, ReFrames   : 5 frames
    Codec ID                    : V_MPEG4/ISO/AVC
    Duration                    : 1 h 23 min
    Bit rate                    : 4 558 kb/s
    Width                       : 1 920 pixels
    Height                      : 810 pixels
    Display aspect ratio        : 2.40:1
    Frame rate mode             : Constant
    Frame rate                  : 23.976 (24000/1001) FPS
    Color space                 : YUV
    Chroma subsampling          : 4:2:0
    Bit depth                   : 8 bits
    Scan type                   : Progressive
    Bits/(Pixel*Frame)          : 0.122
    Stream size                 : 2.67 GiB (88%)
    Title                       : HD1080p [Web]
    Default                     : Yes
    Forced                      : Yes
    Color range                 : Limited
    Color primaries             : BT.709
    Transfer characteristics    : BT.709
    Matrix coefficients         : BT.709

    Audio #1
    ID                          : 2
    Format                      : AC-3
    Format/Info                 : Audio Coding 3
    Commercial name             : Dolby Digital
    Codec ID                    : A_AC3
    Duration                    : 1 h 23 min
    Bit rate mode               : Constant
    Bit rate                    : 256 kb/s
    Channel(s)                  : 2 channels
    Channel layout              : L R
    Sampling rate               : 48.0 kHz
    Frame rate                  : 31.250 FPS (1536 SPF)
    Bit depth                   : 16 bits
    Compression mode            : Lossy
    Stream size                 : 153 MiB (5%)
    Title                       : AC3_2.0_Web_Esp
    Language                    : Spanish
    Service kind                : Complete Main
    Default                     : Yes
    Forced                      : Yes

    Audio #2
    ID                          : 3
    Format                      : AC-3
    Format/Info                 : Audio Coding 3
    Commercial name             : Dolby Digital
    Codec ID                    : A_AC3
    Duration                    : 1 h 23 min
    Bit rate mode               : Constant
    Bit rate                    : 384 kb/s
    Channel(s)                  : 6 channels
    Channel layout              : L R C LFE Ls Rs
    Sampling rate               : 48.0 kHz
    Frame rate                  : 31.250 FPS (1536 SPF)
    Bit depth                   : 16 bits
    Compression mode            : Lossy
    Stream size                 : 230 MiB (7%)
    Title                       : AC3_5.1_Web_Eng
    Language                    : English
    Service kind                : Complete Main
    Default                     : No
    Forced                      : No

    Text #1
    ID                          : 4
    Format                      : UTF-8
    Codec ID                    : S_TEXT/UTF8
    Codec ID/Info               : UTF-8 Plain Text
    Duration                    : 1 h 19 min
    Bit rate                    : 53 b/s
    Count of elements           : 1001
    Stream size                 : 31.3 KiB (0%)
    Title                       : Sub_Esp
    Language                    : Spanish
    Default                     : No
    Forced                      : No

    Text #2
    ID                          : 5
    Format                      : UTF-8
    Codec ID                    : S_TEXT/UTF8
    Codec ID/Info               : UTF-8 Plain Text
    Duration                    : 1 h 22 min
    Bit rate                    : 51 b/s
    Count of elements           : 1232
    Stream size                 : 31.3 KiB (0%)
    Title                       : Sub_Eng
    Language                    : English
    Default                     : No
    Forced                      : No

    Menu
    00:00:00.000                : en:1
    00:09:53.301                : en:2
    00:21:53.228                : en:3
    00:32:22.146                : en:4
    00:45:18.963                : en:5
    00:59:16.716                : en:6
    01:11:54.346                : en:7
    01:20:06.920                : en:8

  • Peso: 3.04 GiB

Sinopsis

Descargar Belong To Us (2018) Web-DL 1080p Latino. Un matón llamado Mercer está involucrado en una pelea de perros ilegal. Tu Pastor Alemán es mordido mientras pelea y logra escapar. La joven Paige Crowley encuentra al perro hurgando en la basura y le gusta, así que lo lleva a casa pero lo esconde de su padre Travis. La familia de Paige es pequeña, pero todos tienen problemas: su padre es un hombre ausente y frustrado, que espera que su hijo Decklin, la estrella del deporte, logre algo que no logró. Paige perdió a su madre temprano, por lo que su abuela Hazel desempeña el papel materno en la casa. La llegada de Mercer trae nueva alegría a todos, incluso si algunos tardan en darse cuenta.

Ficha técnica

  • Titulo original: Belong To Us
  • Fecha de lanzamiento: 25-04-2018 (United States of America)
  • Director: Patrick Rea
  • Género: Drama

Video trailer de la película

Enlaces de descarga

Rip de Bluray

Descargar Belong To Us (2018) Web-DL 1080p Latino




Aportes de DPeliculasHDmega la pass es:dpeliculashdmega.org Aportes de CinemaniaHD la pass es:cinemaniahdd.com
Guardado en : Drama

Películas relacionadas

descargar Belong To Us (2018) Web-DL 1080p Latino WEBDL 1080p gratis, Belong To Us (2018) Web-DL 1080p Latino WEBDL mega 1 link, Belong To Us (2018) Web-DL 1080p Latino WEBDL pelicula completa, descargar Belong To Us (2018) Web-DL 1080p Latino WEBDL gratis en mega.

Belong To Us (2018) Web-DL 1080p Latino pelicula full hd, Belong To Us (2018) Web-DL 1080p Latino mega latino, Belong To Us (2018) Web-DL 1080p Latino 4k latino, Belong To Us (2018) Web-DL 1080p Latino pelicula completa, Belong To Us (2018) Web-DL 1080p Latino descargar gratis, descargar Belong To Us (2018) Web-DL 1080p Latino pelicula latino, Belong To Us (2018) Web-DL 1080p Latino 1 link mega, Belong To Us (2018) Web-DL 1080p Latino 1 link google drive, Belong To Us (2018) Web-DL 1080p Latino hd 1080p latino.
Comentarios 0