×

¿Problemas para descargar con Mozilla, EDGE? Deshabilita la opción "Abrir vinculos en una pestaña nueva" tal como lo muestra ésta imagen.

Bel Canto: La última función (2018) REMUX 1080p Latino

507 vistas

Información de Bel Canto: La última función (2018) REMUX 1080p Latino

Datos de la película

  • Calidad: Full 1080p
  • Audio: Español Latino AC3 2.0 DVD - Ingles DTS 5.1 BLURAY
  • Subtitulos: Español Latino SRT- FORZADOS SRT
  • Resolución: 1920x1080p
  • Formato: MKV
  • Codec: H.264
  • Encoder: CinefiloCool
  • Mediainfo: Clic para Mostrar Datos Ver

  • Bel Canto (2018) REMUX 1080p Latino-CMHDD.mkv
    Format                      : Matroska
    Format version              : Version 4
    File size                   : 12.5 GiB
    Duration                    : 1 h 40 min
    Overall bit rate mode       : Variable
    Overall bit rate            : 17.8 Mb/s
    Movie name                  : CinemaniaHDD.Net
    Encoded date                : UTC 2020-01-29 22:07:04
    Writing application         : mkvmerge v42.0.0 ('Overtime') 64-bit
    Writing library             : libebml v1.3.10 + libmatroska v1.5.2
    Attachments                 : CINEMANIAHD.png

    Video
    ID                          : 1
    Format                      : AVC
    Format/Info                 : Advanced Video Codec
    Format profile              : High@L4.1
    Format settings             : CABAC / 3 Ref Frames
    Format settings, CABAC      : Yes
    Format settings, ReFrames   : 3 frames
    Format settings, GOP        : M=3, N=12
    Codec ID                    : V_MPEG4/ISO/AVC
    Duration                    : 1 h 40 min
    Bit rate mode               : Variable
    Bit rate                    : 14.2 Mb/s
    Maximum bit rate            : 35.0 Mb/s
    Width                       : 1 920 pixels
    Height                      : 1 080 pixels
    Display aspect ratio        : 16:9
    Frame rate mode             : Constant
    Frame rate                  : 23.976 (24000/1001) FPS
    Standard                    : NTSC
    Color space                 : YUV
    Chroma subsampling          : 4:2:0
    Bit depth                   : 8 bits
    Scan type                   : Progressive
    Bits/(Pixel*Frame)          : 0.285
    Stream size                 : 9.99 GiB (80%)
    Title                       : Full HD1080p [REMUX]
    Default                     : Yes
    Forced                      : Yes
    Color range                 : Limited
    Color primaries             : BT.709
    Transfer characteristics    : BT.709
    Matrix coefficients         : BT.709

    Audio #1
    ID                          : 2
    Format                      : AC-3
    Format/Info                 : Audio Coding 3
    Commercial name             : Dolby Digital
    Codec ID                    : A_AC3
    Duration                    : 1 h 40 min
    Bit rate mode               : Constant
    Bit rate                    : 256 kb/s
    Channel(s)                  : 2 channels
    Channel layout              : L R
    Sampling rate               : 48.0 kHz
    Frame rate                  : 31.250 FPS (1536 SPF)
    Bit depth                   : 16 bits
    Compression mode            : Lossy
    Stream size                 : 185 MiB (1%)
    Title                       : AC3_2.0_DVD_Esp
    Language                    : Spanish
    Service kind                : Complete Main
    Default                     : Yes
    Forced                      : Yes

    Audio #2
    ID                          : 3
    Format                      : DTS XLL
    Format/Info                 : Digital Theater Systems
    Commercial name             : DTS-HD Master Audio
    Codec ID                    : A_DTS
    Duration                    : 1 h 40 min
    Bit rate mode               : Variable
    Bit rate                    : 3 364 kb/s
    Channel(s)                  : 6 channels
    Channel layout              : C L R Ls Rs LFE
    Sampling rate               : 48.0 kHz
    Frame rate                  : 93.750 FPS (512 SPF)
    Bit depth                   : 24 bits
    Compression mode            : Lossless
    Stream size                 : 2.37 GiB (19%)
    Title                       : DTS-HD_5.1_Buray_Eng
    Language                    : English
    Default                     : No
    Forced                      : No

    Text #1
    ID                          : 4
    Format                      : UTF-8
    Codec ID                    : S_TEXT/UTF8
    Codec ID/Info               : UTF-8 Plain Text
    Duration                    : 1 h 31 min
    Bit rate                    : 0 b/s
    Count of elements           : 4
    Stream size                 : 110 Bytes (0%)
    Title                       : Sub_Forzados
    Language                    : Spanish
    Default                     : Yes
    Forced                      : Yes

    Text #2
    ID                          : 5
    Format                      : UTF-8
    Codec ID                    : S_TEXT/UTF8
    Codec ID/Info               : UTF-8 Plain Text
    Duration                    : 1 h 31 min
    Bit rate                    : 25 b/s
    Count of elements           : 689
    Stream size                 : 17.4 KiB (0%)
    Title                       : Sub_Esp
    Language                    : Spanish
    Default                     : No
    Forced                      : No

    Menu
    00:00:00.000                : :00:00:00.000
    00:08:30.218                : :00:08:30.218
    00:20:14.839                : :00:20:14.839
    00:27:27.729                : :00:27:27.729
    00:35:59.699                : :00:35:59.699
    00:42:03.312                : :00:42:03.312
    00:52:07.541                : :00:52:07.541
    01:01:59.758                : :01:01:59.758
    01:13:56.182                : :01:13:56.182
    01:18:35.961                : :01:18:35.961
    01:26:03.450                : :01:26:03.450
    01:34:27.954                : :01:34:27.954

  • Peso: 12.5 GiB

Sinopsis

Descargar Bel Canto: La última función (2018) REMUX 1080p Latino. Roxane Coss (Moore), una famosa soprano estadounidense, viaja a Sudamérica para dar un concierto privado en la fiesta de cumpleaños del rico empresario industrial japonés, Katsumi Hosokawa (Watanabe). La fiesta es, también, una reunión de políticos y empresarios locales, que se reúnen en la mansión del vicepresidente peruano Rubén Ochoa; Sin embargo, la casa es tomada por guerrilleros del grupo «Movimiento Revolucionario del Sur» (quienes representarían al Movimiento Revolucionario Túpac Amaru), dirigidas por el Comandante Benjamín (Huerta) que esperaban capturar al presidente peruano Matsuda (Alberto Fujimori). Tras tener éxito en la operación exigen la liberación de sus compañeros encarcelados.

Ficha técnica

Video trailer de la película

Enlaces de descarga

Rip de Bluray

Descargar Bel Canto: La última función (2018) REMUX 1080p Latino




Aportes de DPeliculasHDmega la pass es:dpeliculashdmega.org Aportes de CinemaniaHD la pass es:cinemaniahdd.com
Guardado en : Drama , Música , Remux , Romance , Suspenso

Películas relacionadas

  • Mi amigo el dragón (2016) REMUX 1080p Latino

    Mi amigo el dragón (2016) REMUX 1080p Latino

    2016
    Mi amigo el dragón (2016) REMUX 1080p Latino

    1h 43m 2016

    Descargar Mi amigo el dragón (2016) REMUX 1080p Latino. Durante años el Sr. Meacham, un viejo tallador...

    Director: Joe Nolan

    Género: Aventura

    Actores: William J. Rawbone

  • El discurso del Rey (2010) 1080p Latino

    El discurso del Rey (2010) 1080p Latino

    2010
    El discurso del Rey (2010) 1080p Latino

    1h 58m 2010

    Descargar El discurso del Rey (2010) 1080p Latino. El duque de York se convirtió en rey de Gran Bretaña...

    Director: Tom Hooper

    Género: Drama

    Actores: Tony Earnshaw

  • El discurso del Rey (2010) Full HD 1080p Latino

    El discurso del Rey (2010) Full HD 1080p Latino

    2010
    El discurso del Rey (2010) Full HD 1080p Latino

    1h 58m 2010

    Descargar El discurso del Rey (2010) Full HD 1080p Latino. El duque de York se convirtió en rey de Gran...

    Director: Tom Hooper

    Género: Drama

    Actores: Tony Earnshaw

  • El discurso del Rey (2010) REMUX 1080p Latino

    El discurso del Rey (2010) REMUX 1080p Latino

    2010
    El discurso del Rey (2010) REMUX 1080p Latino

    1h 58m 2010

    Descargar El discurso del Rey (2010) REMUX 1080p Latino. El duque de York se convirtió en rey de Gran...

    Director: Tom Hooper

    Género: Drama

    Actores: Tony Earnshaw

descargar Bel Canto: La última función (2018) REMUX 1080p Latino Full 1080p 1080p gratis, Bel Canto: La última función (2018) REMUX 1080p Latino Full 1080p mega 1 link, Bel Canto: La última función (2018) REMUX 1080p Latino Full 1080p pelicula completa, descargar Bel Canto: La última función (2018) REMUX 1080p Latino Full 1080p gratis en mega.

Bel Canto: La última función (2018) REMUX 1080p Latino pelicula full hd, Bel Canto: La última función (2018) REMUX 1080p Latino mega latino, Bel Canto: La última función (2018) REMUX 1080p Latino 4k latino, Bel Canto: La última función (2018) REMUX 1080p Latino pelicula completa, Bel Canto: La última función (2018) REMUX 1080p Latino descargar gratis, descargar Bel Canto: La última función (2018) REMUX 1080p Latino pelicula latino, Bel Canto: La última función (2018) REMUX 1080p Latino 1 link mega, Bel Canto: La última función (2018) REMUX 1080p Latino 1 link google drive, Bel Canto: La última función (2018) REMUX 1080p Latino hd 1080p latino.
Comentarios 0