×

¿Problemas para descargar con Mozilla, EDGE? Deshabilita la opción "Abrir vinculos en una pestaña nueva" tal como lo muestra ésta imagen.

Bel-Air (2022) [DUB-AR] Primera Temporada PCOK WEB-DL 1080p Latino

1.861 vistas

Información de Bel-Air (2022) [DUB-AR] Primera Temporada PCOK WEB-DL 1080p Latino

Datos de la película

  • Calidad: 1080p
  • Audio: Español Latino AC3 2.0 WEB-DL - Ingles AC3 5.1 WEB-DL
  • Subtitulos: Español Latino SRT - Ingles SRT
  • Resolución: 1920x1080
  • Formato: MKV
  • Codec: H.264
  • Encoder: cinemaniahdd
  • Mediainfo: Clic para Mostrar Datos Ver
  • Bel-Air T01E01 PCOK WEB-DL 1080p Latino [CNMNHDD].mkv
    Format                      : Matroska
    Format version              : Version 4
    File size                   : 3.42 GiB
    Duration                    : 59 min 29 s
    Overall bit rate            : 8 236 kb/s
    Movie name                  : Bel-Air S01E01 - Dreams and Nightmares [1080p]
    Encoded date                : UTC 2022-02-20 01:36:29
    Writing application         : mkvmerge v56.1.0 ('My Friend') 64-bit
    Writing library             : libebml v1.4.2 + libmatroska v1.6.4

    Video
    ID                          : 1
    Format                      : AVC
    Format/Info                 : Advanced Video Codec
    Format profile              : High@L4
    Format settings             : CABAC / 4 Ref Frames
    Format settings, CABAC      : Yes
    Format settings, Reference  : 4 frames
    Codec ID                    : V_MPEG4/ISO/AVC
    Duration                    : 59 min 29 s
    Bit rate                    : 7 814 kb/s
    Width                       : 1 920 pixels
    Height                      : 1 080 pixels
    Display aspect ratio        : 16:9
    Frame rate mode             : Constant
    Frame rate                  : 23.976 (24000/1001) FPS
    Color space                 : YUV
    Chroma subsampling          : 4:2:0
    Bit depth                   : 8 bits
    Scan type                   : Progressive
    Bits/(Pixel*Frame)          : 0.157
    Stream size                 : 3.10 GiB (91%)
    Title                       : CinemaniaHDD
    Writing library             : x264 core 163 r3060 5db6aa6
    Encoding settings           : cabac=1 / ref=4 / deblock=1:0:0 / analyse=0x3:0x113 / me=umh / subme=7 / psy=1 / psy_rd=0.00:0.00 / mixed_ref=1 / me_range=16 / chroma_me=1 / trellis=1 / 8x8dct=1 / cqm=0 / deadzone=21,11 / fast_pskip=0 / chroma_qp_offset=0 / threads=34 / lookahead_threads=5 / sliced_threads=0 / nr=0 / decimate=1 / interlaced=0 / bluray_compat=0 / constrained_intra=0 / bframes=16 / b_pyramid=2 / b_adapt=1 / b_bias=0 / direct=1 / weightb=1 / open_gop=0 / weightp=2 / keyint=48 / keyint_min=4 / scenecut=0 / intra_refresh=0 / rc_lookahead=40 / rc=2pass / mbtree=1 / bitrate=7814 / ratetol=1.0 / qcomp=0.60 / qpmin=10 / qpmax=51 / qpstep=4 / cplxblur=20.0 / qblur=0.5 / vbv_maxrate=7814 / vbv_bufsize=7814 / nal_hrd=none / filler=0 / ip_ratio=1.41 / aq=1:1.00
    Default                     : Yes
    Forced                      : No
    Color range                 : Limited
    Color primaries             : BT.709
    Transfer characteristics    : BT.709
    Matrix coefficients         : BT.709

    Audio #1
    ID                          : 2
    Format                      : AC-3
    Format/Info                 : Audio Coding 3
    Commercial name             : Dolby Digital
    Codec ID                    : A_AC3
    Duration                    : 59 min 29 s
    Bit rate mode               : Constant
    Bit rate                    : 384 kb/s
    Channel(s)                  : 2 channels
    Channel layout              : L R
    Sampling rate               : 48.0 kHz
    Frame rate                  : 31.250 FPS (1536 SPF)
    Compression mode            : Lossy
    Stream size                 : 163 MiB (5%)
    Title                       : Español latino [CinemaniaHDD]
    Language                    : Spanish
    Service kind                : Complete Main
    Default                     : Yes
    Forced                      : No

    Audio #2
    ID                          : 3
    Format                      : AC-3
    Format/Info                 : Audio Coding 3
    Commercial name             : Dolby Digital
    Codec ID                    : A_AC3
    Duration                    : 59 min 29 s
    Bit rate mode               : Constant
    Bit rate                    : 384 kb/s
    Channel(s)                  : 6 channels
    Channel layout              : L R C LFE Ls Rs
    Sampling rate               : 48.0 kHz
    Frame rate                  : 31.250 FPS (1536 SPF)
    Compression mode            : Lossy
    Stream size                 : 163 MiB (5%)
    Title                       : Inglés [CinemaniaHDD]
    Language                    : English
    Service kind                : Complete Main
    Default                     : No
    Forced                      : No

    Text #1
    ID                          : 4
    Format                      : UTF-8
    Codec ID                    : S_TEXT/UTF8
    Codec ID/Info               : UTF-8 Plain Text
    Duration                    : 58 min 12 s
    Bit rate                    : 83 b/s
    Count of elements           : 1199
    Stream size                 : 35.6 KiB (0%)
    Title                       : Español latino (SDH) [CinemaniaHDD]
    Language                    : Spanish
    Default                     : No
    Forced                      : No

    Text #2
    ID                          : 5
    Format                      : UTF-8
    Codec ID                    : S_TEXT/UTF8
    Codec ID/Info               : UTF-8 Plain Text
    Duration                    : 58 min 57 s
    Bit rate                    : 99 b/s
    Count of elements           : 1433
    Stream size                 : 42.8 KiB (0%)
    Title                       : Inglés (SDH) [CinemaniaHDD]
    Language                    : English
    Default                     : No
    Forced                      : No

     

  • Peso: 3.42 GiB Aprox ---- 29 GiB in 10 Chapters. - DOBLAJE ARGENTINO

Sinopsis

El viaje de un adolescente listo para leer cuya vida se transforma para siempre cuando se muda de las calles del oeste de Filadelfia a vivir con sus familiares en uno de los suburbios más ricos de Los Ángeles.

DOBLAJE ARGENTINO

Ficha técnica

Video trailer de la película

Enlaces de descarga

Rip de Bluray

Descargar Bel-Air (2022) [DUB-AR] Primera Temporada PCOK WEB-DL 1080p Latino




Aportes de DPeliculasHDmega la pass es:dpeliculashdmega.org Aportes de CinemaniaHD la pass es:cinemaniahdd.com
Guardado en : Drama , Series

Películas relacionadas

descargar Bel-Air (2022) [DUB-AR] Primera Temporada PCOK WEB-DL 1080p Latino 1080p 1080p gratis, Bel-Air (2022) [DUB-AR] Primera Temporada PCOK WEB-DL 1080p Latino 1080p mega 1 link, Bel-Air (2022) [DUB-AR] Primera Temporada PCOK WEB-DL 1080p Latino 1080p serie completa, descargar Bel-Air (2022) [DUB-AR] Primera Temporada PCOK WEB-DL 1080p Latino 1080p gratis en mega.

Bel-Air (2022) [DUB-AR] Primera Temporada PCOK WEB-DL 1080p Latino pelicula full hd, Bel-Air (2022) [DUB-AR] Primera Temporada PCOK WEB-DL 1080p Latino mega latino, Bel-Air (2022) [DUB-AR] Primera Temporada PCOK WEB-DL 1080p Latino 4k latino, Bel-Air (2022) [DUB-AR] Primera Temporada PCOK WEB-DL 1080p Latino pelicula completa, Bel-Air (2022) [DUB-AR] Primera Temporada PCOK WEB-DL 1080p Latino descargar gratis, descargar Bel-Air (2022) [DUB-AR] Primera Temporada PCOK WEB-DL 1080p Latino pelicula latino, Bel-Air (2022) [DUB-AR] Primera Temporada PCOK WEB-DL 1080p Latino 1 link mega, Bel-Air (2022) [DUB-AR] Primera Temporada PCOK WEB-DL 1080p Latino 1 link google drive, Bel-Air (2022) [DUB-AR] Primera Temporada PCOK WEB-DL 1080p Latino hd 1080p latino.
Comentarios 5
  • Christian - 13 abril, 2022

    Gracias

  • Christian - 31 marzo, 2022

    Y los otros 5 restantes?

    • CinemaniaHDD - 12 abril, 2022

      recien fueron agregados con su soblaje en le streaming de origen.

  • Christian - 05 marzo, 2022

    Y los cap 5 y 6?

    • CinemaniaHDD - 07 marzo, 2022

      la plataforma dejo de subir el doblaje, asi que toca esperar a que lo agregen.