×

¿Problemas para descargar con Mozilla, EDGE? Deshabilita la opción "Abrir vinculos en una pestaña nueva" tal como lo muestra ésta imagen.

Bel-Air (2022) [DUB-MX] Primera Temporada Star+ WEB-DL 1080p Latino

293 vistas

Información de Bel-Air (2022) [DUB-MX] Primera Temporada Star+ WEB-DL 1080p Latino

Datos de la película

  • Calidad: 1080p
  • Audio: Español Latino AC3 5.1 WEB-DL - Ingles AC3 5.1 WEB-DL
  • Subtitulos: Español Latino SRT
  • Resolución: 1920x1080
  • Formato: MKV
  • Codec: H.264
  • Encoder: cinemaniahdd
  • Mediainfo: Clic para Mostrar Datos Ver
  • BelAir T01E01 Star+ WEB-DL 1080p Latino [CNMNHDD].mkv
    Format                      : Matroska
    Format version              : Version 4
    File size                   : 2.63 GiB
    Duration                    : 59 min 12 s
    Overall bit rate mode       : Variable
    Overall bit rate            : 6 365 kb/s
    Movie name                  : BelAir S01E01 [1080p] - CinemaniaHDD.Net
    Encoded date                : UTC 2022-05-20 22:42:40
    Writing application         : mkvmerge v56.1.0 ('My Friend') 64-bit
    Writing library             : libebml v1.4.2 + libmatroska v1.6.4

    Video
    ID                          : 1
    Format                      : AVC
    Format/Info                 : Advanced Video Codec
    Format profile              : High@L4
    Format settings             : CABAC / 4 Ref Frames
    Format settings, CABAC      : Yes
    Format settings, Reference  : 4 frames
    Codec ID                    : V_MPEG4/ISO/AVC
    Duration                    : 59 min 7 s
    Bit rate mode               : Variable
    Bit rate                    : 5 858 kb/s
    Maximum bit rate            : 12.7 Mb/s
    Width                       : 1 920 pixels
    Height                      : 1 080 pixels
    Display aspect ratio        : 16:9
    Frame rate mode             : Constant
    Frame rate                  : 23.976 (24000/1001) FPS
    Color space                 : YUV
    Chroma subsampling          : 4:2:0
    Bit depth                   : 8 bits
    Scan type                   : Progressive
    Bits/(Pixel*Frame)          : 0.118
    Stream size                 : 2.42 GiB (92%)
    Title                       : CinemaniaHDD
    Default                     : Yes
    Forced                      : No
    Color range                 : Limited
    Color primaries             : BT.709
    Transfer characteristics    : BT.709
    Matrix coefficients         : BT.709

    Audio #1
    ID                          : 2
    Format                      : E-AC-3
    Format/Info                 : Enhanced AC-3
    Commercial name             : Dolby Digital Plus
    Codec ID                    : A_EAC3
    Duration                    : 59 min 12 s
    Bit rate mode               : Constant
    Bit rate                    : 256 kb/s
    Channel(s)                  : 6 channels
    Channel layout              : L R C LFE Ls Rs
    Sampling rate               : 48.0 kHz
    Frame rate                  : 31.250 FPS (1536 SPF)
    Compression mode            : Lossy
    Stream size                 : 108 MiB (4%)
    Title                       : Español latino [CinemaniaHDD]
    Language                    : Spanish
    Service kind                : Complete Main
    Default                     : Yes
    Forced                      : No

    Audio #2
    ID                          : 3
    Format                      : E-AC-3
    Format/Info                 : Enhanced AC-3
    Commercial name             : Dolby Digital Plus
    Codec ID                    : A_EAC3
    Duration                    : 59 min 12 s
    Bit rate mode               : Constant
    Bit rate                    : 256 kb/s
    Channel(s)                  : 6 channels
    Channel layout              : L R C LFE Ls Rs
    Sampling rate               : 48.0 kHz
    Frame rate                  : 31.250 FPS (1536 SPF)
    Compression mode            : Lossy
    Stream size                 : 108 MiB (4%)
    Title                       : Inglés [CinemaniaHDD]
    Language                    : English
    Service kind                : Complete Main
    Default                     : No
    Forced                      : No

    Text
    ID                          : 4
    Format                      : UTF-8
    Codec ID                    : S_TEXT/UTF8
    Codec ID/Info               : UTF-8 Plain Text
    Duration                    : 56 min 53 s
    Bit rate                    : 79 b/s
    Count of elements           : 970
    Stream size                 : 33.0 KiB (0%)
    Title                       : Español latino [CinemaniaHDD]
    Language                    : Spanish
    Default                     : No
    Forced                      : No

     

  • Peso: 2.63 GiB Aprox ---- 22 GiB in 10 Chapters. - DOBLAJE MEXICANO

Sinopsis

El viaje de un adolescente listo para leer cuya vida se transforma para siempre cuando se muda de las calles del oeste de Filadelfia a vivir con sus familiares en uno de los suburbios más ricos de Los Ángeles.

DOBLAJE MEXICANO

Ficha técnica

Video trailer de la película

Enlaces de descarga

Rip de Bluray

Descargar Bel-Air (2022) [DUB-MX] Primera Temporada Star+ WEB-DL 1080p Latino




Aportes de DPeliculasHDmega la pass es:dpeliculashdmega.org Aportes de CinemaniaHD la pass es:cinemaniahdd.com
Guardado en : Drama , Series

Películas relacionadas

descargar Bel-Air (2022) [DUB-MX] Primera Temporada Star+ WEB-DL 1080p Latino 1080p 1080p gratis, Bel-Air (2022) [DUB-MX] Primera Temporada Star+ WEB-DL 1080p Latino 1080p mega 1 link, Bel-Air (2022) [DUB-MX] Primera Temporada Star+ WEB-DL 1080p Latino 1080p serie completa, descargar Bel-Air (2022) [DUB-MX] Primera Temporada Star+ WEB-DL 1080p Latino 1080p gratis en mega.

Bel-Air (2022) [DUB-MX] Primera Temporada Star+ WEB-DL 1080p Latino pelicula full hd, Bel-Air (2022) [DUB-MX] Primera Temporada Star+ WEB-DL 1080p Latino mega latino, Bel-Air (2022) [DUB-MX] Primera Temporada Star+ WEB-DL 1080p Latino 4k latino, Bel-Air (2022) [DUB-MX] Primera Temporada Star+ WEB-DL 1080p Latino pelicula completa, Bel-Air (2022) [DUB-MX] Primera Temporada Star+ WEB-DL 1080p Latino descargar gratis, descargar Bel-Air (2022) [DUB-MX] Primera Temporada Star+ WEB-DL 1080p Latino pelicula latino, Bel-Air (2022) [DUB-MX] Primera Temporada Star+ WEB-DL 1080p Latino 1 link mega, Bel-Air (2022) [DUB-MX] Primera Temporada Star+ WEB-DL 1080p Latino 1 link google drive, Bel-Air (2022) [DUB-MX] Primera Temporada Star+ WEB-DL 1080p Latino hd 1080p latino.
Comentarios 0