Beforeigners (2020) Temporada 1 HBOGO WEB-DL 1080p Latino

103 vistas
1 estrella2 estrellas3 estrellas4 estrellas5 estrellas (1 votos, promedio: 5,00 de 5)
Cargando...

Información de Beforeigners (2020) Temporada 1 HBOGO WEB-DL 1080p Latino

Datos de la película

  • Calidad: WEBDL
  • Audio: Se especifica abajo de la Sinopsis
  • Subtitulos: Español Latino SRT- FORZADOS SRT
  • Resolución: 1920x1080
  • Formato: MKV
  • Codec: H.264
  • Encoder: cinemaniahdd
  • Mediainfo: Clic para Mostrar Datos Ver
  • Beforeigners T01E01 HBOGO WEB-DL 1080p Latino [CNMNHDD].mkv
    Format                      : Matroska
    Format version              : Version 4
    File size                   : 1.41 GiB
    Duration                    : 51 min 8 s
    Overall bit rate            : 3 946 kb/s
    Movie name                  : Beforeigners T01E01 - CinemaniaHDD.Net
    Encoded date                : UTC 2021-01-15 00:14:46
    Writing application         : mkvmerge v51.0.0 ('I Wish') 64-bit
    Writing library             : libebml v1.4.0 + libmatroska v1.6.2

    Video
    ID                          : 1
    Format                      : AVC
    Format/Info                 : Advanced Video Codec
    Format profile              : High@L4
    Format settings             : CABAC / 4 Ref Frames
    Format settings, CABAC      : Yes
    Format settings, Reference  : 4 frames
    Codec ID                    : V_MPEG4/ISO/AVC
    Duration                    : 51 min 8 s
    Bit rate                    : 3 303 kb/s
    Width                       : 1 920 pixels
    Height                      : 1 080 pixels
    Display aspect ratio        : 16:9
    Frame rate mode             : Constant
    Frame rate                  : 30.000 FPS
    Color space                 : YUV
    Chroma subsampling          : 4:2:0
    Bit depth                   : 8 bits
    Scan type                   : Progressive
    Bits/(Pixel*Frame)          : 0.053
    Stream size                 : 1.18 GiB (84%)
    Title                       : CinemaniaHDD
    Default                     : Yes
    Forced                      : No
    Color range                 : Limited
    Color primaries             : BT.709
    Transfer characteristics    : BT.709
    Matrix coefficients         : BT.709

    Audio #1
    ID                          : 2
    Format                      : AC-3
    Format/Info                 : Audio Coding 3
    Commercial name             : Dolby Digital
    Codec ID                    : A_AC3
    Duration                    : 51 min 8 s
    Bit rate mode               : Constant
    Bit rate                    : 256 kb/s
    Channel(s)                  : 2 channels
    Channel layout              : L R
    Sampling rate               : 48.0 kHz
    Frame rate                  : 31.250 FPS (1536 SPF)
    Compression mode            : Lossy
    Stream size                 : 93.6 MiB (6%)
    Title                       : Español latino [CinemaniaHDD]
    Language                    : Spanish
    Service kind                : Complete Main
    Default                     : Yes
    Forced                      : No

    Audio #2
    ID                          : 3
    Format                      : AC-3
    Format/Info                 : Audio Coding 3
    Commercial name             : Dolby Digital
    Codec ID                    : A_AC3
    Duration                    : 51 min 8 s
    Bit rate mode               : Constant
    Bit rate                    : 384 kb/s
    Channel(s)                  : 6 channels
    Channel layout              : L R C LFE Ls Rs
    Sampling rate               : 48.0 kHz
    Frame rate                  : 31.250 FPS (1536 SPF)
    Compression mode            : Lossy
    Stream size                 : 140 MiB (10%)
    Title                       : Noruego [CinemaniaHDD]
    Language                    : Norwegian
    Service kind                : Complete Main
    Default                     : No
    Forced                      : No

    Text #1
    ID                          : 4
    Format                      : UTF-8
    Codec ID                    : S_TEXT/UTF8
    Codec ID/Info               : UTF-8 Plain Text
    Duration                    : 32 min 53 s
    Bit rate                    : 0 b/s
    Count of elements           : 6
    Stream size                 : 138 Bytes (0%)
    Title                       : Forzados [CinemaniaHDD]
    Language                    : Spanish
    Default                     : Yes
    Forced                      : Yes

    Text #2
    ID                          : 5
    Format                      : UTF-8
    Codec ID                    : S_TEXT/UTF8
    Codec ID/Info               : UTF-8 Plain Text
    Duration                    : 47 min 31 s
    Bit rate                    : 51 b/s
    Count of elements           : 528
    Stream size                 : 17.9 KiB (0%)
    Title                       : Español latino [CinemaniaHDD]
    Language                    : Spanish
    Default                     : No
    Forced                      : No

    Text #3
    ID                          : 6
    Format                      : UTF-8
    Codec ID                    : S_TEXT/UTF8
    Codec ID/Info               : UTF-8 Plain Text
    Duration                    : 47 min 33 s
    Bit rate                    : 52 b/s
    Count of elements           : 417
    Stream size                 : 18.4 KiB (0%)
    Title                       : Inglés [CinemaniaHDD]
    Language                    : English
    Default                     : No
    Forced                      : No

     

  • Peso: 1.41 GiB Aprox ---- 8 GiB in 6 Chapters.

Sinopsis

Gente de la Edad de Piedra, la Era Vikinga y finales del siglo XIX comienzan a aparecer inexplicablemente en la actual Oslo, Noruega, sin recuerdo alguno de cómo llegaron hasta allí. Años más tarde, cuando uno de estos «refugiados del tiempo» es asesinado, el caso es asignado al detective Lars Haaland y a Alfhildr Enginsdottir, la primera policía vikinga del departamento.

Español Latino AC3 2.0 WEB-DL – Noruego AC3 5.1 WEB-DL

TEMPORADA FINALIZADA

Ficha técnica

Video trailer de la película

Enlaces de descarga

Rip de Bluray

Descargar Beforeigners (2020) Temporada 1 HBOGO WEB-DL 1080p Latino




Aportes de DPeliculasHDmega la pass es:dpeliculashdmega.org Aportes de CinemaniaHD la pass es:cinemaniahdd.com
Guardado en : Drama , HBO , Sci-Fi & Fantasy , Series

Películas relacionadas

  • Batwoman (2021) Temporada 2 AMZN WEB-DL 1080p Latino

    Batwoman (2021) Temporada 2 AMZN WEB-DL 1080p Latino

    2019
    Batwoman (2021) Temporada 2 AMZN WEB-DL 1080p Latino

    5.0 0h 42m 2019

    Después de la misteriosa desaparición de Batman de Ciudad Gótica, la prima de Bruce Wayne, Kate...

    Director: Greg Berlanti

    Género: Crimen

    Actores: Rachel Skarsten

  • Accusations & Lies (2019) Star WEB-DL 1080p Latino

    Accusations & Lies (2019) Star WEB-DL 1080p Latino

    2019
    Accusations & Lies (2019) Star WEB-DL 1080p Latino

    5.0 1h 25m 2019

    Liz y Andrew llegan a Hawaii para celebrar su décimo aniversario de boda. Cuando Liz despierta a la...

    Director: Michael Feifer

    Género: Drama

    Actores: Philip Boyd

  • WandaVision (2021) temporada 1 WEB-DL 1080p Latino

    WandaVision (2021) temporada 1 WEB-DL 1080p Latino

    2021
    WandaVision (2021) temporada 1 WEB-DL 1080p Latino

    5.0 0h 0m 2021

    Descargar WandaVision (2021) temporada 1 WEB-DL 1080p Latino. “WandaVision” de Marvel Studios combina...

    Director: Jac Schaeffer

    Género: Drama

    Actores: Teyonah Parris

  • Sentinelle (2021) NF WEB-DL 1080p Latino

    Sentinelle (2021) NF WEB-DL 1080p Latino

    2021
    Sentinelle (2021) NF WEB-DL 1080p Latino

    5.0 1h 20m 2021

    De regreso en su casa tras una traumática misión de combate, una soldado altamente capacitada emplea...

    Director: Julien Leclercq

    Género: Acción

    Actores: Olga Kurylenko

Beforeigners (2020) Temporada 1 HBOGO WEB-DL 1080p Latino pelicula full hd, Beforeigners (2020) Temporada 1 HBOGO WEB-DL 1080p Latino mega latino, Beforeigners (2020) Temporada 1 HBOGO WEB-DL 1080p Latino 4k latino, Beforeigners (2020) Temporada 1 HBOGO WEB-DL 1080p Latino pelicula completa, Beforeigners (2020) Temporada 1 HBOGO WEB-DL 1080p Latino descargar gratis, descargar Beforeigners (2020) Temporada 1 HBOGO WEB-DL 1080p Latino pelicula latino, Beforeigners (2020) Temporada 1 HBOGO WEB-DL 1080p Latino 1 link mega, Beforeigners (2020) Temporada 1 HBOGO WEB-DL 1080p Latino 1 link google drive, Beforeigners (2020) Temporada 1 HBOGO WEB-DL 1080p Latino hd 1080p latino.
Comentarios 0