×

¿Problemas para descargar con Mozilla, EDGE? Deshabilita la opción "Abrir vinculos en una pestaña nueva" tal como lo muestra ésta imagen.

Antes De Separarnos (2014) REMUX 1080p Latino

372 vistas

Información de Antes De Separarnos (2014) REMUX 1080p Latino

Datos de la película

  • Calidad: Full 1080p
  • Audio: Español Latino AC3 2.0 WEB-DL - Ingles DTS 5.1 BLURAY
  • Subtitulos: Español Latino PGS - Ingles PGS
  • Resolución: 1920x1080p
  • Formato: MKV
  • Codec: H.264
  • Encoder: CinefiloCool
  • Mediainfo: Clic para Mostrar Datos Ver
  • Antes De Separarnos (2014) REMUX 1080p Latino-CMHDD.mkv
    Format                      : Matroska
    Format version              : Version 4
    File size                   : 18.4 GiB
    Duration                    : 1 h 35 min
    Overall bit rate mode       : Variable
    Overall bit rate            : 27.7 Mb/s
    Movie name                  : Before We Go (2014) CinemaniaHDD.Net
    Encoded date                : UTC 2023-04-30 03:18:29
    Writing application         : mkvmerge v56.1.0 ('My Friend') 64-bit
    Writing library             : libebml v1.4.2 + libmatroska v1.6.4
    Attachments                 : CINEMANIAHD.png

    Video
    ID                          : 1
    Format                      : AVC
    Format/Info                 : Advanced Video Codec
    Format profile              : High@L4.1
    Format settings             : CABAC / 4 Ref Frames
    Format settings, CABAC      : Yes
    Format settings, Reference  : 4 frames
    Codec ID                    : V_MPEG4/ISO/AVC
    Duration                    : 1 h 35 min
    Bit rate mode               : Variable
    Bit rate                    : 23.8 Mb/s
    Maximum bit rate            : 35.0 Mb/s
    Width                       : 1 920 pixels
    Height                      : 1 080 pixels
    Display aspect ratio        : 16:9
    Frame rate mode             : Constant
    Frame rate                  : 23.976 (24000/1001) FPS
    Color space                 : YUV
    Chroma subsampling          : 4:2:0
    Bit depth                   : 8 bits
    Scan type                   : Progressive
    Bits/(Pixel*Frame)          : 0.480
    Stream size                 : 15.9 GiB (86%)
    Title                       : REMUX HD1080p [CinemaniaHDD]
    Language                    : English
    Default                     : Yes
    Forced                      : Yes

    Audio #1
    ID                          : 2
    Format                      : AC-3
    Format/Info                 : Audio Coding 3
    Commercial name             : Dolby Digital
    Codec ID                    : A_AC3
    Duration                    : 1 h 35 min
    Bit rate mode               : Constant
    Bit rate                    : 256 kb/s
    Channel(s)                  : 2 channels
    Channel layout              : L R
    Sampling rate               : 48.0 kHz
    Frame rate                  : 31.250 FPS (1536 SPF)
    Compression mode            : Lossy
    Stream size                 : 175 MiB (1%)
    Title                       : Español Latino [CinemaniaHDD]
    Language                    : Spanish
    Service kind                : Complete Main
    Default                     : Yes
    Forced                      : Yes

    Audio #2
    ID                          : 3
    Format                      : DTS XLL
    Format/Info                 : Digital Theater Systems
    Commercial name             : DTS-HD Master Audio
    Codec ID                    : A_DTS
    Duration                    : 1 h 35 min
    Bit rate mode               : Variable
    Bit rate                    : 3 529 kb/s
    Channel(s)                  : 6 channels
    Channel layout              : C L R Ls Rs LFE
    Sampling rate               : 48.0 kHz
    Frame rate                  : 93.750 FPS (512 SPF)
    Bit depth                   : 24 bits
    Compression mode            : Lossless
    Stream size                 : 2.35 GiB (13%)
    Title                       : Ingles [CinemaniaHDD]
    Language                    : English
    Default                     : No
    Forced                      : No

    Text #1
    ID                          : 4
    Format                      : PGS
    Muxing mode                 : zlib
    Codec ID                    : S_HDMV/PGS
    Codec ID/Info               : Picture based subtitle format used on BDs/HD-DVDs
    Duration                    : 1 h 28 min
    Bit rate                    : 48.7 kb/s
    Count of elements           : 2742
    Stream size                 : 30.9 MiB (0%)
    Title                       : Español-PGS [CinemaniaHDD]
    Language                    : Spanish
    Default                     : No
    Forced                      : No

    Text #2
    ID                          : 5
    Format                      : PGS
    Muxing mode                 : zlib
    Codec ID                    : S_HDMV/PGS
    Codec ID/Info               : Picture based subtitle format used on BDs/HD-DVDs
    Duration                    : 1 h 28 min
    Bit rate                    : 54.9 kb/s
    Count of elements           : 3414
    Stream size                 : 34.9 MiB (0%)
    Title                       : Ingles [CinemaniaHDD]
    Language                    : English
    Default                     : No
    Forced                      : No

    Text #3
    ID                          : 6
    Format                      : UTF-8
    Codec ID                    : S_TEXT/UTF8
    Codec ID/Info               : UTF-8 Plain Text
    Duration                    : 42 min 12 s
    Bit rate                    : 2 b/s
    Count of elements           : 21
    Stream size                 : 645 Bytes (0%)
    Title                       : Forzados-SRT [CinemaniaHDD]
    Language                    : Spanish
    Default                     : Yes
    Forced                      : Yes

    Text #4
    ID                          : 7
    Format                      : UTF-8
    Codec ID                    : S_TEXT/UTF8
    Codec ID/Info               : UTF-8 Plain Text
    Duration                    : 1 h 28 min
    Bit rate                    : 73 b/s
    Count of elements           : 1482
    Stream size                 : 47.7 KiB (0%)
    Title                       : Español-SRT [CinemaniaHDD]
    Language                    : Spanish
    Default                     : No
    Forced                      : No

    Menu
    00:00:00.000                : 00:00:00.000
    00:04:17.549                : 00:04:17.549
    00:09:50.507                : 00:09:50.507
    00:15:49.574                : 00:15:49.574
    00:19:56.904                : 00:19:56.904
    00:25:43.375                : 00:25:43.375
    00:32:26.570                : 00:32:26.570
    00:38:29.349                : 00:38:29.349
    00:43:42.286                : 00:43:42.286
    00:48:25.486                : 00:48:25.486
    00:55:04.009                : 00:55:04.009
    01:04:37.415                : 01:04:37.415
    01:11:13.269                : 01:11:13.269
    01:18:03.721                : 01:18:03.721
    01:24:07.584                : 01:24:07.584
    01:29:14.099                : 01:29:14.099

  • Peso: 18.4 GiB

Sinopsis

Descargar Antes De Separarnos (2014) REMUX 1080p Latino. Una mujer pierde el tren de la 1:30 de Nueva York a Boston, tras lo cual un músico de la calle pasa la noche tratando de ayudarla a hacer que pueda volver a casa antes de que llegue su marido. A lo largo de la noche aprenden mucho el uno del otro y se enamoran.

Ficha técnica

Video trailer de la película

Enlaces de descarga

Rip de Bluray

Descargar Antes De Separarnos (2014) REMUX 1080p Latino


Aportes de DPeliculasHDmega la pass es:dpeliculashdmega.org Aportes de CinemaniaHD la pass es:cinemaniahdd.com Aportes recientes:cinemaniahdd.net
Guardado en : Comedia , Drama , Remux , Romance

Películas relacionadas

  • Red de venganza (2023) HD 1080p Latino

    Red de venganza (2023) HD 1080p Latino

    2023
    Red de venganza (2023) HD 1080p Latino

    1h 25m 2023

    Descargar Red de venganza (2023) HD 1080p Latino. Analiza los problemas que surgen entre una madre (Summer...

    Director: Amy Redford

    Género: Drama

    Actores: Summer Phoenix

  • Red de venganza (2023) REMUX 1080p Latino

    Red de venganza (2023) REMUX 1080p Latino

    2023
    Red de venganza (2023) REMUX 1080p Latino

    1h 25m 2023

    Descargar Red de venganza (2023) REMUX 1080p Latino. Analiza los problemas que surgen entre una madre...

    Director: Amy Redford

    Género: Drama

    Actores: Summer Phoenix

  • Recuerdos Mortales (2024) WEB-DL 1080p Latino

    Recuerdos Mortales (2024) WEB-DL 1080p Latino

    2024
    Recuerdos Mortales (2024) WEB-DL 1080p Latino

    1h 52m 2024

    Descargar Recuerdos Mortales (2024) WEB-DL 1080p Latino. Después de someterse a un tratamiento de vanguardia...

    Director: Adam Cooper

    Género: Crimen

    Actores: Tommy Flanagan

descargar Antes De Separarnos (2014) REMUX 1080p Latino Full 1080p 1080p gratis, Antes De Separarnos (2014) REMUX 1080p Latino Full 1080p mega 1 link, Antes De Separarnos (2014) REMUX 1080p Latino Full 1080p pelicula completa, descargar Antes De Separarnos (2014) REMUX 1080p Latino Full 1080p gratis en mega.

Antes De Separarnos (2014) REMUX 1080p Latino pelicula full hd, Antes De Separarnos (2014) REMUX 1080p Latino mega latino, Antes De Separarnos (2014) REMUX 1080p Latino 4k latino, Antes De Separarnos (2014) REMUX 1080p Latino pelicula completa, Antes De Separarnos (2014) REMUX 1080p Latino descargar gratis, descargar Antes De Separarnos (2014) REMUX 1080p Latino pelicula latino, Antes De Separarnos (2014) REMUX 1080p Latino 1 link mega, Antes De Separarnos (2014) REMUX 1080p Latino 1 link google drive, Antes De Separarnos (2014) REMUX 1080p Latino hd 1080p latino.
Comentarios 0