×

¿Problemas para descargar con Mozilla, EDGE? Deshabilita la opción "Abrir vinculos en una pestaña nueva" tal como lo muestra ésta imagen.

Si no despierto (2017) BD-USA REMUX 1080p Latino

27 vistas

Información de Si no despierto (2017) BD-USA REMUX 1080p Latino

Datos de la película

  • Calidad: Full 1080p
  • Audio: Español Latino AC3 5.1 WEB-DL - Ingles DTS 5.1 BLURAY
  • Subtitulos: Español Latino PGS - Ingles PGS
  • Resolución: 1920x1080p
  • Formato: MKV
  • Codec: H.264
  • Encoder: CinefiloCool
  • Mediainfo: Clic para Mostrar Datos Ver
  • Si No Despierto (2017) USA REMUX 1080p Latino.mkv Format                      : Matroska Format version              : Version 4 File size                   : 25.2 GiB Duration                    : 1 h 38 min Overall bit rate mode       : Variable Overall bit rate            : 36.5 Mb/s Movie name                  : Before I Fall (2017) CinemaniaHDD.Net Encoded date                : UTC 2023-01-17 22:36:43 Writing application         : mkvmerge v56.1.0 ('My Friend') 64-bit Writing library             : libebml v1.4.2 + libmatroska v1.6.4 Attachments                 : CINEMANIAHD.png Video ID                          : 1 Format                      : AVC Format/Info                 : Advanced Video Codec Format profile              : High@L4.1 Format settings             : CABAC / 4 Ref Frames Format settings, CABAC      : Yes Format settings, Reference  : 4 frames Codec ID                    : V_MPEG4/ISO/AVC Duration                    : 1 h 38 min Bit rate mode               : Variable Bit rate                    : 31.6 Mb/s Maximum bit rate            : 35.0 Mb/s Width                       : 1 920 pixels Height                      : 1 080 pixels Display aspect ratio        : 16:9 Frame rate mode             : Constant Frame rate                  : 23.976 (24000/1001) FPS Color space                 : YUV Chroma subsampling          : 4:2:0 Bit depth                   : 8 bits Scan type                   : Progressive Bits/(Pixel*Frame)          : 0.636 Stream size                 : 21.8 GiB (87%) Title                       : REMUX HD1080p [CinemaniaHDD] Language                    : English Default                     : Yes Forced                      : Yes Audio #1 ID                          : 2 Format                      : AC-3 Format/Info                 : Audio Coding 3 Commercial name             : Dolby Digital Codec ID                    : A_AC3 Duration                    : 1 h 38 min Bit rate mode               : Constant Bit rate                    : 640 kb/s Channel(s)                  : 6 channels Channel layout              : L R C LFE Ls Rs Sampling rate               : 48.0 kHz Frame rate                  : 31.250 FPS (1536 SPF) Compression mode            : Lossy Stream size                 : 452 MiB (2%) Title                       : Español Latino AC3 [CinemaniaHDD] Language                    : Spanish Service kind                : Complete Main Default                     : Yes Forced                      : Yes Audio #2 ID                          : 3 Format                      : E-AC-3 Format/Info                 : Enhanced AC-3 Commercial name             : Dolby Digital Plus Codec ID                    : A_EAC3 Duration                    : 1 h 38 min Bit rate mode               : Constant Bit rate                    : 640 kb/s Channel(s)                  : 6 channels Channel layout              : L R C LFE Ls Rs Sampling rate               : 48.0 kHz Frame rate                  : 31.250 FPS (1536 SPF) Compression mode            : Lossy Delay relative to video     : 24 s 255 ms Stream size                 : 450 MiB (2%) Title                       : Español Latino EAC3 [CinemaniaHDD] Language                    : Spanish Service kind                : Complete Main Default                     : No Forced                      : No Audio #3 ID                          : 4 Format                      : DTS XLL Format/Info                 : Digital Theater Systems Commercial name             : DTS-HD Master Audio Codec ID                    : A_DTS Duration                    : 1 h 38 min Bit rate mode               : Variable Bit rate                    : 3 563 kb/s Channel(s)                  : 6 channels Channel layout              : C L R Ls Rs LFE Sampling rate               : 48.0 kHz Frame rate                  : 93.750 FPS (512 SPF) Bit depth                   : 24 bits Compression mode            : Lossless Stream size                 : 2.46 GiB (10%) Title                       : Ingles [CinemaniaHDD] Language                    : English Default                     : No Forced                      : No Text #1 ID                          : 5 Format                      : PGS Muxing mode                 : zlib Codec ID                    : S_HDMV/PGS Codec ID/Info               : Picture based subtitle format used on BDs/HD-DVDs Duration                    : 1 h 37 min Bit rate                    : 29.6 kb/s Count of elements           : 2370 Stream size                 : 20.7 MiB (0%) Title                       : Español-PGS [CinemaniaHDD] Language                    : Spanish Default                     : No Forced                      : No Text #2 ID                          : 6 Format                      : PGS Muxing mode                 : zlib Codec ID                    : S_HDMV/PGS Codec ID/Info               : Picture based subtitle format used on BDs/HD-DVDs Duration                    : 1 h 32 min Bit rate                    : 43.2 kb/s Count of elements           : 2456 Stream size                 : 28.5 MiB (0%) Title                       : Ingles-PGS [CinemaniaHDD] Language                    : English Default                     : No Forced                      : No Text #3 ID                          : 7 Format                      : UTF-8 Codec ID                    : S_TEXT/UTF8 Codec ID/Info               : UTF-8 Plain Text Duration                    : 1 h 19 min Bit rate                    : 0 b/s Count of elements           : 19 Stream size                 : 445 Bytes (0%) Title                       : Forzados-SRT [CinemaniaHDD] Language                    : Spanish Default                     : Yes Forced                      : Yes Text #4 ID                          : 8 Format                      : UTF-8 Codec ID                    : S_TEXT/UTF8 Codec ID/Info               : UTF-8 Plain Text Duration                    : 1 h 32 min Bit rate                    : 50 b/s Count of elements           : 1183 Stream size                 : 34.2 KiB (0%) Title                       : Español-SRT [CinemaniaHDD] Language                    : Spanish Default                     : No Forced                      : No Menu 00:00:00.000                : 00:00:00.000 00:05:23.448                : 00:05:23.448 00:10:13.321                : 00:10:13.321 00:14:14.520                : 00:14:14.520 00:22:23.676                : 00:22:23.676 00:27:21.932                : 00:27:21.932 00:33:41.353                : 00:33:41.353 00:37:41.384                : 00:37:41.384 00:41:21.145                : 00:41:21.145 00:46:37.795                : 00:46:37.795 00:51:22.871                : 00:51:22.871 00:56:48.238                : 00:56:48.238 00:59:33.820                : 00:59:33.820 01:04:07.635                : 01:04:07.635 01:08:31.566                : 01:08:31.566 01:13:09.927                : 01:13:09.927 01:17:50.291                : 01:17:50.291 01:21:09.531                : 01:21:09.531 01:25:44.181                : 01:25:44.181 01:33:19.594                : 01:33:19.594
  • Peso: 25.2 GiB

Sinopsis

Descargar Si no despierto (2017) BD-USA REMUX 1080p Latino. En principio el 12 de febrero es sólo otro día en la acomodada vida de la joven Sam, pero resulta que va a ser el último. Intentando revivir su último día durante un tiempo, Sam intentará desentrañar el misterio alrededor de su muerte… y descubrir todo lo que está en peligro de perder.

Nota: El source es el Bluray de USA, Mayor Bitrate/Peso pero con la imagen mas oscura 🙂

Ficha técnica

Video trailer de la película

Enlaces de descarga

Rip de Bluray

Descargar Si no despierto (2017) BD-USA REMUX 1080p Latino


Aportes de DPeliculasHDmega la pass es:dpeliculashdmega.org Aportes de CinemaniaHD la pass es:cinemaniahdd.com
Guardado en : Drama , Fantasía , Misterio , Remux , Suspenso

Películas relacionadas

  • Mi amigo el dragón (2016) Full HD 1080p Latino

    Mi amigo el dragón (2016) Full HD 1080p Latino

    2016
    Mi amigo el dragón (2016) Full HD 1080p Latino

    1h 43m 2016

    Descargar Mi amigo el dragón (2016) Full HD 1080p Latino. Durante años el Sr. Meacham, un viejo tallador...

    Director: Joe Nolan

    Género: Aventura

    Actores: William J. Rawbone

  • Mi amigo el dragón (2016) REMUX 1080p Latino

    Mi amigo el dragón (2016) REMUX 1080p Latino

    2016
    Mi amigo el dragón (2016) REMUX 1080p Latino

    1h 43m 2016

    Descargar Mi amigo el dragón (2016) REMUX 1080p Latino. Durante años el Sr. Meacham, un viejo tallador...

    Director: Joe Nolan

    Género: Aventura

    Actores: William J. Rawbone

  • El discurso del Rey (2010) 1080p Latino

    El discurso del Rey (2010) 1080p Latino

    2010
    El discurso del Rey (2010) 1080p Latino

    1h 58m 2010

    Descargar El discurso del Rey (2010) 1080p Latino. El duque de York se convirtió en rey de Gran Bretaña...

    Director: Tom Hooper

    Género: Drama

    Actores: Tony Earnshaw

  • El discurso del Rey (2010) Full HD 1080p Latino

    El discurso del Rey (2010) Full HD 1080p Latino

    2010
    El discurso del Rey (2010) Full HD 1080p Latino

    1h 58m 2010

    Descargar El discurso del Rey (2010) Full HD 1080p Latino. El duque de York se convirtió en rey de Gran...

    Director: Tom Hooper

    Género: Drama

    Actores: Tony Earnshaw

  • El discurso del Rey (2010) REMUX 1080p Latino

    El discurso del Rey (2010) REMUX 1080p Latino

    2010
    El discurso del Rey (2010) REMUX 1080p Latino

    1h 58m 2010

    Descargar El discurso del Rey (2010) REMUX 1080p Latino. El duque de York se convirtió en rey de Gran...

    Director: Tom Hooper

    Género: Drama

    Actores: Tony Earnshaw

descargar Si no despierto (2017) BD-USA REMUX 1080p Latino Full 1080p 1080p gratis, Si no despierto (2017) BD-USA REMUX 1080p Latino Full 1080p mega 1 link, Si no despierto (2017) BD-USA REMUX 1080p Latino Full 1080p pelicula completa, descargar Si no despierto (2017) BD-USA REMUX 1080p Latino Full 1080p gratis en mega.

Si no despierto (2017) BD-USA REMUX 1080p Latino pelicula full hd, Si no despierto (2017) BD-USA REMUX 1080p Latino mega latino, Si no despierto (2017) BD-USA REMUX 1080p Latino 4k latino, Si no despierto (2017) BD-USA REMUX 1080p Latino pelicula completa, Si no despierto (2017) BD-USA REMUX 1080p Latino descargar gratis, descargar Si no despierto (2017) BD-USA REMUX 1080p Latino pelicula latino, Si no despierto (2017) BD-USA REMUX 1080p Latino 1 link mega, Si no despierto (2017) BD-USA REMUX 1080p Latino 1 link google drive, Si no despierto (2017) BD-USA REMUX 1080p Latino hd 1080p latino.
Comentarios 0