×

¿Problemas para descargar con Mozilla, EDGE? Deshabilita la opción "Abrir vinculos en una pestaña nueva" tal como lo muestra ésta imagen.

Antes y después (1996) Full HD 1080p Latino-CMHDD

63 vistas

Información de Antes y después (1996) Full HD 1080p Latino-CMHDD

Datos de la película

  • Calidad: Full 1080p
  • Audio: Español Latino AC3 2.0 BLURAY - Ingles DTS 5.1 BLURAY
  • Subtitulos: Español Latino SRT- FORZADOS SRT
  • Resolución: 1920x1080p
  • Formato: MKV
  • Codec: H.264
  • Encoder: CinefiloCool
  • Mediainfo: Clic para Mostrar Datos Ver
  • Before.And.After.1996.Bluray.FullHD.1080p.x264.Latino-CC@CMHDD.mkv
    Format                      : Matroska
    Format version              : Version 4
    File size                   : 7.00 GiB
    Duration                    : 1 h 47 min
    Overall bit rate            : 9 309 kb/s
    Movie name                  : Before And After (1996) CinemaniaHDD.Net
    Encoded date                : UTC 2024-02-15 04:17:46
    Writing application         : mkvmerge v56.1.0 ('My Friend') 64-bit
    Writing library             : libebml v1.4.2 + libmatroska v1.6.4
    Attachments                 : CINEMANIAHD.png

    Video
    ID                          : 1
    Format                      : AVC
    Format/Info                 : Advanced Video Codec
    Format profile              : High@L4.1
    Format settings             : CABAC / 4 Ref Frames
    Format settings, CABAC      : Yes
    Format settings, Reference  : 4 frames
    Codec ID                    : V_MPEG4/ISO/AVC
    Duration                    : 1 h 47 min
    Bit rate                    : 8 275 kb/s
    Width                       : 1 920 pixels
    Height                      : 1 080 pixels
    Display aspect ratio        : 16:9
    Frame rate mode             : Constant
    Frame rate                  : 23.976 (24000/1001) FPS
    Color space                 : YUV
    Chroma subsampling          : 4:2:0
    Bit depth                   : 8 bits
    Scan type                   : Progressive
    Bits/(Pixel*Frame)          : 0.166
    Stream size                 : 6.22 GiB (89%)
    Title                       : Full HD1080p [CinemaniaHDD]
    Writing library             : x264 core 163 r3059 b684ebe0
    Encoding settings           : cabac=1 / ref=4 / deblock=1:0:0 / analyse=0x3:0x133 / me=tesa / subme=11 / psy=1 / psy_rd=1.00:0.00 / mixed_ref=1 / me_range=24 / chroma_me=1 / trellis=2 / 8x8dct=1 / cqm=0 / deadzone=21,11 / fast_pskip=0 / chroma_qp_offset=-2 / threads=24 / lookahead_threads=6 / sliced_threads=0 / nr=0 / decimate=1 / interlaced=0 / bluray_compat=0 / constrained_intra=0 / bframes=16 / b_pyramid=2 / b_adapt=2 / b_bias=0 / direct=3 / weightb=1 / open_gop=0 / weightp=2 / keyint=240 / keyint_min=24 / scenecut=40 / intra_refresh=0 / rc_lookahead=60 / rc=crf / mbtree=1 / crf=20.0 / qcomp=0.60 / qpmin=0 / qpmax=69 / qpstep=4 / vbv_maxrate=62500 / vbv_bufsize=78125 / crf_max=0.0 / nal_hrd=none / filler=0 / ip_ratio=1.40 / aq=1:1.00
    Default                     : Yes
    Forced                      : Yes
    Color range                 : Limited
    Color primaries             : BT.709
    Transfer characteristics    : BT.709
    Matrix coefficients         : BT.709

    Audio #1
    ID                          : 2
    Format                      : AC-3
    Format/Info                 : Audio Coding 3
    Commercial name             : Dolby Digital
    Codec ID                    : A_AC3
    Duration                    : 1 h 47 min
    Bit rate mode               : Constant
    Bit rate                    : 256 kb/s
    Channel(s)                  : 2 channels
    Channel layout              : L R
    Sampling rate               : 48.0 kHz
    Frame rate                  : 31.250 FPS (1536 SPF)
    Compression mode            : Lossy
    Stream size                 : 197 MiB (3%)
    Title                       : Español Latino [CinemaniaHDD]
    Language                    : Spanish
    Service kind                : Complete Main
    Default                     : Yes
    Forced                      : Yes

    Audio #2
    ID                          : 3
    Format                      : DTS
    Format/Info                 : Digital Theater Systems
    Codec ID                    : A_DTS
    Duration                    : 1 h 47 min
    Bit rate mode               : Constant
    Bit rate                    : 768 kb/s
    Channel(s)                  : 6 channels
    Channel layout              : C L R Ls Rs LFE
    Sampling rate               : 48.0 kHz
    Frame rate                  : 93.750 FPS (512 SPF)
    Bit depth                   : 24 bits
    Compression mode            : Lossy
    Stream size                 : 591 MiB (8%)
    Title                       : Ingles [CinemaniaHDD]
    Language                    : English
    Default                     : No
    Forced                      : No

    Text #1
    ID                          : 4
    Format                      : UTF-8
    Codec ID                    : S_TEXT/UTF8
    Codec ID/Info               : UTF-8 Plain Text
    Duration                    : 47 min 10 s
    Bit rate                    : 0 b/s
    Count of elements           : 4
    Stream size                 : 135 Bytes (0%)
    Title                       : Forzados-SRT [CinemaniaHDD]
    Language                    : Spanish
    Default                     : Yes
    Forced                      : Yes

    Text #2
    ID                          : 5
    Format                      : UTF-8
    Codec ID                    : S_TEXT/UTF8
    Codec ID/Info               : UTF-8 Plain Text
    Duration                    : 1 h 46 min
    Bit rate                    : 53 b/s
    Count of elements           : 1107
    Stream size                 : 41.9 KiB (0%)
    Title                       : Español-SRT [CinemaniaHDD]
    Language                    : Spanish
    Default                     : No
    Forced                      : No

    Text #3
    ID                          : 6
    ID in the original source m : 4608 (0x1200)
    Format                      : PGS
    Muxing mode                 : zlib
    Codec ID                    : S_HDMV/PGS
    Codec ID/Info               : Picture based subtitle format used on BDs/HD-DVDs
    Duration                    : 1 h 46 min
    Bit rate                    : 38.3 kb/s
    Count of elements           : 3282
    Stream size                 : 29.3 MiB (0%)
    Title                       : Ingles-PGS [CinemaniaHDD]
    Language                    : English
    Default                     : No
    Forced                      : No
    Original source medium      : Blu-ray

    Menu
    00:00:00.000                : Chapter 01
    00:07:31.993                : Chapter 02
    00:13:05.201                : Chapter 03
    00:22:38.857                : Chapter 04
    00:31:04.195                : Chapter 05
    00:37:52.770                : Chapter 06
    00:48:11.221                : Chapter 07
    01:03:45.071                : Chapter 08
    01:11:45.592                : Chapter 09
    01:21:29.384                : Chapter 10
    01:29:32.075                : Chapter 11
    01:42:57.504                : Chapter 12

  • Peso: 7.00 GiB

Sinopsis

Descargar Antes y después (1996) Full HD 1080p Latino-CMHDD. El escalofriante descubrimiento del cuerpo destrozado de una joven lleva a la policía a acusar al novio de la chica. Los padres del chico luchan con todas sus fuerzas para conocer la verdad de lo ocurrido. Basada en la novela homónima de la escritora Rosellen Brown, este sólido -aunque imperturbable- drama lleno de suspense narra la desesperación de unos padres para descubrir si su hijo es el responsable del asesinato de su pareja

Ficha técnica

Video trailer de la película

Enlaces de descarga

Rip de Bluray

Descargar Antes y después (1996) Full HD 1080p Latino-CMHDD




Aportes de DPeliculasHDmega la pass es:dpeliculashdmega.org Aportes de CinemaniaHD la pass es:cinemaniahdd.com Aportes recientes:cinemaniahdd.net

Películas relacionadas

descargar Antes y después (1996) Full HD 1080p Latino-CMHDD Full 1080p 1080p gratis, Antes y después (1996) Full HD 1080p Latino-CMHDD Full 1080p mega 1 link, Antes y después (1996) Full HD 1080p Latino-CMHDD Full 1080p pelicula completa, descargar Antes y después (1996) Full HD 1080p Latino-CMHDD Full 1080p gratis en mega.

Antes y después (1996) Full HD 1080p Latino-CMHDD pelicula full hd, Antes y después (1996) Full HD 1080p Latino-CMHDD mega latino, Antes y después (1996) Full HD 1080p Latino-CMHDD 4k latino, Antes y después (1996) Full HD 1080p Latino-CMHDD pelicula completa, Antes y después (1996) Full HD 1080p Latino-CMHDD descargar gratis, descargar Antes y después (1996) Full HD 1080p Latino-CMHDD pelicula latino, Antes y después (1996) Full HD 1080p Latino-CMHDD 1 link mega, Antes y después (1996) Full HD 1080p Latino-CMHDD 1 link google drive, Antes y después (1996) Full HD 1080p Latino-CMHDD hd 1080p latino.
Comentarios 0