Beethoven (1992) HD 1080p Latino – CMHDD

36 vistas
1 estrella2 estrellas3 estrellas4 estrellas5 estrellas (Ninguna valoración todavía)
Cargando...

Información de Beethoven (1992) HD 1080p Latino – CMHDD

Datos de la película

  • Calidad: 1080p
  • Audio: Se especifica abajo de la Sinopsis
  • Subtitulos: Español Latino SRT
  • Resolución: 1920x1040p
  • Formato: MKV
  • Codec: H.264
  • Encoder: Dracarys
  • Mediainfo: Clic para Mostrar Datos Ver
  • Format                      : Matroska
    Format version              : Version 4
    File size                   : 2.61 GiB
    Duration                    : 1 h 27 min
    Overall bit rate            : 4 291 kb/s
    Movie name                  : Beethoven (1992) HD 1080p Latino - CMHDD
    Encoded date                : UTC 2020-08-03 22:18:11
    Writing application         : mkvmerge v46.0.0 ('No Deeper Escape') 64-bit
    Writing library             : libebml v1.3.10 + libmatroska v1.5.2

    Video
    ID                          : 1
    Format                      : AVC
    Format/Info                 : Advanced Video Codec
    Format profile              : High@L4.1
    Format settings             : CABAC / 4 Ref Frames
    Format settings, CABAC      : Yes
    Format settings, Reference  : 4 frames
    Codec ID                    : V_MPEG4/ISO/AVC
    Duration                    : 1 h 27 min
    Bit rate                    : 3 500 kb/s
    Width                       : 1 920 pixels
    Height                      : 1 040 pixels
    Display aspect ratio        : 1.85:1
    Frame rate mode             : Constant
    Frame rate                  : 23.976 (24000/1001) FPS
    Color space                 : YUV
    Chroma subsampling          : 4:2:0
    Bit depth                   : 8 bits
    Scan type                   : Progressive
    Bits/(Pixel*Frame)          : 0.073
    Stream size                 : 2.10 GiB (81%)
    Writing library             : x264 core 157 r2935 545de2f
    Encoding settings           : cabac=1 / ref=4 / deblock=1:0:0 / analyse=0x3:0x113 / me=hex / subme=8 / psy=1 / psy_rd=1.00:0.00 / mixed_ref=1 / me_range=16 / chroma_me=1 / trellis=2 / 8x8dct=1 / cqm=0 / deadzone=21,11 / fast_pskip=1 / chroma_qp_offset=-2 / threads=24 / lookahead_threads=4 / sliced_threads=0 / nr=0 / decimate=1 / interlaced=0 / bluray_compat=0 / constrained_intra=0 / bframes=3 / b_pyramid=2 / b_adapt=1 / b_bias=0 / direct=3 / weightb=1 / open_gop=0 / weightp=2 / keyint=240 / keyint_min=24 / scenecut=40 / intra_refresh=0 / rc_lookahead=50 / rc=abr / mbtree=1 / bitrate=3500 / ratetol=1.0 / qcomp=0.60 / qpmin=0 / qpmax=69 / qpstep=4 / vbv_maxrate=62500 / vbv_bufsize=78125 / nal_hrd=none / filler=0 / ip_ratio=1.40 / aq=1:1.00
    Default                     : Yes
    Forced                      : No
    Color range                 : Limited
    Color primaries             : BT.709
    Transfer characteristics    : BT.709
    Matrix coefficients         : BT.709

    Audio #1
    ID                          : 2
    Format                      : AC-3
    Format/Info                 : Audio Coding 3
    Commercial name             : Dolby Digital
    Codec ID                    : A_AC3
    Duration                    : 1 h 27 min
    Bit rate mode               : Constant
    Bit rate                    : 192 kb/s
    Channel(s)                  : 2 channels
    Channel layout              : L R
    Sampling rate               : 48.0 kHz
    Frame rate                  : 31.250 FPS (1536 SPF)
    Compression mode            : Lossy
    Stream size                 : 120 MiB (4%)
    Language                    : Spanish
    Service kind                : Complete Main
    Default                     : Yes
    Forced                      : No

    Audio #2
    ID                          : 3
    Format                      : AC-3
    Format/Info                 : Audio Coding 3
    Commercial name             : Dolby Digital
    Codec ID                    : A_AC3
    Duration                    : 1 h 27 min
    Bit rate mode               : Constant
    Bit rate                    : 640 kb/s
    Channel(s)                  : 2 channels
    Channel layout              : L R
    Sampling rate               : 48.0 kHz
    Frame rate                  : 31.250 FPS (1536 SPF)
    Compression mode            : Lossy
    Delay relative to video     : -5 ms
    Stream size                 : 398 MiB (15%)
    Language                    : English
    Service kind                : Complete Main
    Default                     : No
    Forced                      : No

    Text
    ID                          : 4
    Format                      : UTF-8
    Codec ID                    : S_TEXT/UTF8
    Codec ID/Info               : UTF-8 Plain Text
    Duration                    : 1 h 26 min
    Bit rate                    : 46 b/s
    Count of elements           : 848
    Stream size                 : 29.1 KiB (0%)
    Language                    : Spanish
    Default                     : No
    Forced                      : No

    Menu
    00:00:00.000                : :Chapter 1
    00:08:36.558                : :Chapter 2
    00:15:18.835                : :Chapter 3
    00:16:50.801                : :Chapter 4
    00:20:01.826                : :Chapter 5
    00:23:13.475                : :Chapter 6
    00:27:02.538                : :Chapter 7
    00:32:58.602                : :Chapter 8
    00:37:58.026                : :Chapter 9
    00:42:20.455                : :Chapter 10
    00:48:24.151                : :Chapter 11
    00:57:14.973                : :Chapter 12
    01:00:53.441                : :Chapter 13
    01:07:56.906                : :Chapter 14
    01:13:56.766                : :Chapter 15
    01:22:46.962                : :Chapter 16

  • Peso: 2.61 GiB

Sinopsis

El pobre Beethoven, un perro San Bernardo, escapa milagrosamente de las garras de una banda de ladrones que ha robado la tienda de animales donde estaba. Después de pasar la noche oculto en un frío y húmedo cubo de basura despierta en el hogar de sus sueños: una casa maravillosa con un enorme jardín y niños. (FILMAFFINITY)

 

Latino: AC3 2.0  –  Ingles: AC3 2.0

Ficha técnica

Video trailer de la película

Enlaces de descarga

Rip de Bluray

Descargar Beethoven (1992) HD 1080p Latino – CMHDD




Aportes de DPeliculasHDmega la pass es:dpeliculashdmega.org Aportes de CinemaniaHD la pass es:cinemaniahdd.com
Guardado en : Comedia , Familia , HD 1080p

Películas relacionadas

  • Rogue (2020) HD 1080p Latino

    Rogue (2020) HD 1080p Latino

    2020
    Rogue (2020) HD 1080p Latino

    0.0 1h 46m 2020

    Descargar Rogue (2020) HD 1080p Latino. O'Hara es una mercenaria que dirige un escuadrón de soldados...

    Director: M.J. Bassett

    Género: Acción

    Actores: Tamer Burjaq

  • Transcendence: Identidad Virtual (2014) 1080p Latino

    Transcendence: Identidad Virtual (2014) 1080p Latino

    2014
    Transcendence: Identidad Virtual (2014) 1080p Latino

    0.0 1h 59m 2014

    Descargar Transcendence: Identidad Virtual (2014) 1080p Latino. El Dr. Will Caster (Johnny Depp), prestigioso...

    Director: Wally Pfister

    Género: Ciencia ficción

    Actores: Xander Berkeley

  • Hermosas Criaturas (2013) 1080p Latino

    Hermosas Criaturas (2013) 1080p Latino

    2013
    Hermosas Criaturas (2013) 1080p Latino

    0.0 2h 4m 2013

    Descargar Hermosas Criaturas (2013) 1080p Latino. El hastío domina la vida de Ethan Wate, un chico que...

    Director: Richard LaGravenese

    Género: Drama

    Actores: Zoey Deutch

  • La Luz Entre Los Océanos (2016) 1080p Latino

    La Luz Entre Los Océanos (2016) 1080p Latino

    2016
    La Luz Entre Los Océanos (2016) 1080p Latino

    0.0 2h 13m 2016

    Descargar La Luz Entre Los Océanos (2016) 1080p Latino. Australia, 1926. Un bote encalla en una isla...

    Director: Veronique Lawrence

    Género: Drama

    Actores: Thomas Unger

  • Karate Kid (2010) HD 1080p Latino

    Karate Kid (2010) HD 1080p Latino

    2010
    Karate Kid (2010) HD 1080p Latino

    0.0 2h 19m 2010

    Dre Parkerpodría haber sido el más popular en Detroit, pero la carrera profesional de su madre los...

    Director: Nikki Clapp

    Género: Acción

    Actores: Zhiheng Wang

Comentarios 0