×

¿Problemas para descargar con Mozilla, EDGE? Deshabilita la opción "Abrir vinculos en una pestaña nueva" tal como lo muestra ésta imagen.

Becoming Elizabeth (2022) Primera Temporada AMZN WEB-DL 1080p Latino

971 vistas

Información de Becoming Elizabeth (2022) Primera Temporada AMZN WEB-DL 1080p Latino

Datos de la película

  • Calidad: 1080p
  • Audio: Español Latino AC3 5.1 WEB-DL - Ingles AC3 5.1 WEB-DL
  • Subtitulos: Español Latino SRT - Ingles SRT
  • Resolución: 1920x960
  • Formato: MKV
  • Codec: H.264
  • Encoder: cinemaniahdd
  • Mediainfo: Clic para Mostrar Datos Ver
  • Becoming Elizabeth T01E01 AMZN WEB-DL 1080p Latino [CNMNHDD].mkv
    Format                      : Matroska
    Format version              : Version 4
    File size                   : 4.23 GiB
    Duration                    : 58 min 30 s
    Overall bit rate            : 10.4 Mb/s
    Movie name                  : Becoming Elizabeth S01E01 - Keep Your Knife Bright [CinemaniaHDD.Net]
    Encoded date                : UTC 2022-06-12 22:30:19
    Writing application         : mkvmerge v56.1.0 ('My Friend') 64-bit
    Writing library             : libebml v1.4.2 + libmatroska v1.6.4

    Video
    ID                          : 1
    Format                      : AVC
    Format/Info                 : Advanced Video Codec
    Format profile              : High@L4
    Format settings             : CABAC / 4 Ref Frames
    Format settings, CABAC      : Yes
    Format settings, Reference  : 4 frames
    Codec ID                    : V_MPEG4/ISO/AVC
    Duration                    : 58 min 30 s
    Bit rate mode               : Constant
    Bit rate                    : 8 437 kb/s
    Nominal bit rate            : 10 000 kb/s
    Width                       : 1 920 pixels
    Height                      : 960 pixels
    Display aspect ratio        : 2.000
    Frame rate mode             : Constant
    Frame rate                  : 23.976 (24000/1001) FPS
    Color space                 : YUV
    Chroma subsampling          : 4:2:0
    Bit depth                   : 8 bits
    Scan type                   : Progressive
    Bits/(Pixel*Frame)          : 0.191
    Stream size                 : 3.45 GiB (81%)
    Title                       : CinemaniaHDD
    Default                     : Yes
    Forced                      : No
    Color range                 : Limited
    Color primaries             : BT.709
    Transfer characteristics    : BT.709
    Matrix coefficients         : BT.709

    Audio #1
    ID                          : 2
    Format                      : AC-3
    Format/Info                 : Audio Coding 3
    Commercial name             : Dolby Digital
    Codec ID                    : A_AC3
    Duration                    : 58 min 30 s
    Bit rate mode               : Constant
    Bit rate                    : 640 kb/s
    Channel(s)                  : 6 channels
    Channel layout              : L R C LFE Ls Rs
    Sampling rate               : 48.0 kHz
    Frame rate                  : 31.250 FPS (1536 SPF)
    Compression mode            : Lossy
    Stream size                 : 268 MiB (6%)
    Title                       : Español latino [CinemaniaHDD]
    Language                    : Spanish
    Service kind                : Complete Main
    Default                     : Yes
    Forced                      : No

    Audio #2
    ID                          : 3
    Format                      : E-AC-3
    Format/Info                 : Enhanced AC-3
    Commercial name             : Dolby Digital Plus
    Codec ID                    : A_EAC3
    Duration                    : 58 min 30 s
    Bit rate mode               : Constant
    Bit rate                    : 640 kb/s
    Channel(s)                  : 6 channels
    Channel layout              : L R C LFE Ls Rs
    Sampling rate               : 48.0 kHz
    Frame rate                  : 31.250 FPS (1536 SPF)
    Compression mode            : Lossy
    Stream size                 : 268 MiB (6%)
    Title                       : Español latino / E-AC3 [CinemaniaHDD]
    Language                    : Spanish
    Service kind                : Complete Main
    Default                     : No
    Forced                      : No

    Audio #3
    ID                          : 4
    Format                      : E-AC-3
    Format/Info                 : Enhanced AC-3
    Commercial name             : Dolby Digital Plus
    Codec ID                    : A_EAC3
    Duration                    : 58 min 30 s
    Bit rate mode               : Constant
    Bit rate                    : 640 kb/s
    Channel(s)                  : 6 channels
    Channel layout              : L R C LFE Ls Rs
    Sampling rate               : 48.0 kHz
    Frame rate                  : 31.250 FPS (1536 SPF)
    Compression mode            : Lossy
    Stream size                 : 268 MiB (6%)
    Title                       : Inglés [CinemaniaHDD]
    Language                    : English
    Service kind                : Complete Main
    Default                     : No
    Forced                      : No

    Text #1
    ID                          : 5
    Format                      : UTF-8
    Codec ID                    : S_TEXT/UTF8
    Codec ID/Info               : UTF-8 Plain Text
    Duration                    : 58 min 12 s
    Bit rate                    : 61 b/s
    Count of elements           : 875
    Stream size                 : 26.2 KiB (0%)
    Title                       : Español latino [CinemaniaHDD]
    Language                    : Spanish
    Default                     : No
    Forced                      : No

    Text #2
    ID                          : 6
    Format                      : UTF-8
    Codec ID                    : S_TEXT/UTF8
    Codec ID/Info               : UTF-8 Plain Text
    Duration                    : 56 min 54 s
    Bit rate                    : 61 b/s
    Count of elements           : 883
    Stream size                 : 25.5 KiB (0%)
    Title                       : Inglés [CinemaniaHDD]
    Language                    : English
    Default                     : No
    Forced                      : No

     

  • Peso: 4.23 GiB Aprox ---- 32 GiB in 8 Chapters.

Sinopsis

Tras la muerte de Enrique VIII, sus tres hijos; María, Isabel y Edward son ahora peones en un peligroso juego en el que la corte inglesa se sumerge en una carrera por el control de la nueva Inglaterra en la que se encuentran.

Ficha técnica

  • Titulo original: Becoming Elizabeth
  • Fecha de lanzamiento: 12-06-2022 (US)
  • Director: Anya Reiss
  • Género: Drama, Series

Video trailer de la película

Enlaces de descarga

Rip de Bluray

Descargar Becoming Elizabeth (2022) Primera Temporada AMZN WEB-DL 1080p Latino




Aportes de DPeliculasHDmega la pass es:dpeliculashdmega.org Aportes de CinemaniaHD la pass es:cinemaniahdd.com
Guardado en : Drama , Series

Películas relacionadas

descargar Becoming Elizabeth (2022) Primera Temporada AMZN WEB-DL 1080p Latino 1080p 1080p gratis, Becoming Elizabeth (2022) Primera Temporada AMZN WEB-DL 1080p Latino 1080p mega 1 link, Becoming Elizabeth (2022) Primera Temporada AMZN WEB-DL 1080p Latino 1080p serie completa, descargar Becoming Elizabeth (2022) Primera Temporada AMZN WEB-DL 1080p Latino 1080p gratis en mega.

Becoming Elizabeth (2022) Primera Temporada AMZN WEB-DL 1080p Latino pelicula full hd, Becoming Elizabeth (2022) Primera Temporada AMZN WEB-DL 1080p Latino mega latino, Becoming Elizabeth (2022) Primera Temporada AMZN WEB-DL 1080p Latino 4k latino, Becoming Elizabeth (2022) Primera Temporada AMZN WEB-DL 1080p Latino pelicula completa, Becoming Elizabeth (2022) Primera Temporada AMZN WEB-DL 1080p Latino descargar gratis, descargar Becoming Elizabeth (2022) Primera Temporada AMZN WEB-DL 1080p Latino pelicula latino, Becoming Elizabeth (2022) Primera Temporada AMZN WEB-DL 1080p Latino 1 link mega, Becoming Elizabeth (2022) Primera Temporada AMZN WEB-DL 1080p Latino 1 link google drive, Becoming Elizabeth (2022) Primera Temporada AMZN WEB-DL 1080p Latino hd 1080p latino.
Comentarios 0