×

¿Problemas para descargar con Mozilla, EDGE? Deshabilita la opción "Abrir vinculos en una pestaña nueva" tal como lo muestra ésta imagen.

Beauty and the Beast (2017) REMUX 1080p Latino – CMHDD

822 vistas

Información de Beauty and the Beast (2017) REMUX 1080p Latino – CMHDD

Datos de la película

  • Calidad: Full 1080p
  • Audio: Español Latino AC3 5.1 BLURAY - Ingles DTS-HD Master 7.1 BLURAY
  • Subtitulos: Español Latino SRT- FORZADOS SRT
  • Resolución: 1920x1080p
  • Formato: MKV
  • Codec: H.264
  • Encoder: Dracarys
  • Mediainfo: Clic para Mostrar Datos Ver
  • Format                      : Matroska
    Format version              : Version 4
    File size                   : 27.0 GiB
    Duration                    : 2 h 9 min
    Overall bit rate mode       : Variable
    Overall bit rate            : 29.9 Mb/s
    Movie name                  : Beauty and the Beast (2017) REMUX 1080p Latino - CMHDD
    Encoded date                : UTC 2021-11-01 03:06:05
    Writing application         : mkvmerge v17.0.0 ('Be Ur Friend') 64-bit
    Writing library             : libebml v1.3.5 + libmatroska v1.4.8

    Video
    ID                          : 1
    Format                      : AVC
    Format/Info                 : Advanced Video Codec
    Format profile              : High@L4.1
    Format settings             : CABAC / 4 Ref Frames
    Format settings, CABAC      : Yes
    Format settings, Reference  : 4 frames
    Format settings, GOP        : M=1, N=12
    Codec ID                    : V_MPEG4/ISO/AVC
    Duration                    : 2 h 9 min
    Bit rate mode               : Variable
    Bit rate                    : 24.0 Mb/s
    Maximum bit rate            : 35.0 Mb/s
    Width                       : 1 920 pixels
    Height                      : 1 080 pixels
    Display aspect ratio        : 16:9
    Frame rate mode             : Constant
    Frame rate                  : 23.976 (24000/1001) FPS
    Color space                 : YUV
    Chroma subsampling          : 4:2:0
    Bit depth                   : 8 bits
    Scan type                   : Progressive
    Bits/(Pixel*Frame)          : 0.483
    Stream size                 : 21.7 GiB (80%)
    Default                     : Yes
    Forced                      : No

    Audio #1
    ID                          : 2
    Format                      : DTS XLL
    Format/Info                 : Digital Theater Systems
    Commercial name             : DTS-HD Master Audio
    Codec ID                    : A_DTS
    Duration                    : 2 h 9 min
    Bit rate mode               : Variable
    Bit rate                    : 5 174 kb/s
    Channel(s)                  : 8 channels
    Channel layout              : C L R LFE Lb Rb Lss Rss
    Sampling rate               : 48.0 kHz
    Frame rate                  : 93.750 FPS (512 SPF)
    Bit depth                   : 24 bits
    Compression mode            : Lossless
    Stream size                 : 4.67 GiB (17%)
    Language                    : English
    Default                     : No
    Forced                      : No

    Audio #2
    ID                          : 3
    Format                      : AC-3
    Format/Info                 : Audio Coding 3
    Commercial name             : Dolby Digital
    Codec ID                    : A_AC3
    Duration                    : 2 h 9 min
    Bit rate mode               : Constant
    Bit rate                    : 640 kb/s
    Channel(s)                  : 6 channels
    Channel layout              : L R C LFE Ls Rs
    Sampling rate               : 48.0 kHz
    Frame rate                  : 31.250 FPS (1536 SPF)
    Compression mode            : Lossy
    Stream size                 : 592 MiB (2%)
    Language                    : Spanish
    Service kind                : Complete Main
    Default                     : Yes
    Forced                      : No

    Text #1
    ID                          : 4
    Format                      : PGS
    Muxing mode                 : zlib
    Codec ID                    : S_HDMV/PGS
    Codec ID/Info               : Picture based subtitle format used on BDs/HD-DVDs
    Duration                    : 2 h 1 min
    Bit rate                    : 29.4 kb/s
    Count of elements           : 3188
    Stream size                 : 25.6 MiB (0%)
    Language                    : Spanish
    Default                     : No
    Forced                      : No

    Text #2
    ID                          : 5
    Format                      : PGS
    Muxing mode                 : zlib
    Codec ID                    : S_HDMV/PGS
    Codec ID/Info               : Picture based subtitle format used on BDs/HD-DVDs
    Duration                    : 4 s 171 ms
    Bit rate                    : 24.4 kb/s
    Count of elements           : 2
    Stream size                 : 12.4 KiB (0%)
    Language                    : Spanish
    Default                     : No
    Forced                      : No

    Menu
    00:00:00.000                : en:Chapter 1
    00:04:36.276                : en:Chapter 2
    00:08:06.527                : en:Chapter 3
    00:11:18.260                : en:Chapter 4
    00:15:21.545                : en:Chapter 5
    00:18:57.386                : en:Chapter 6
    00:25:05.921                : en:Chapter 7
    00:31:41.566                : en:Chapter 8
    00:36:08.708                : en:Chapter 9
    00:42:32.258                : en:Chapter 10
    00:47:01.318                : en:Chapter 11
    00:54:44.990                : en:Chapter 12
    01:00:43.556                : en:Chapter 13
    01:07:40.931                : en:Chapter 14
    01:14:38.223                : en:Chapter 15
    01:19:43.695                : en:Chapter 16
    01:22:02.751                : en:Chapter 17
    01:28:53.369                : en:Chapter 18
    01:34:01.302                : en:Chapter 19
    01:38:10.175                : en:Chapter 20
    01:45:23.692                : en:Chapter 21
    01:49:13.964                : en:Chapter 22
    01:55:54.197                : en:Chapter 23
    01:58:49.497                : en:Chapter 24

  • Peso: 27.0 GiB

Sinopsis

Bella, una joven hermosa y brillante, asume el lugar de su padre como prisionero en el castillo de una bestia. Poco a poco, la valiente Bella irá dándose cuenta de que el príncipe bestia no es el malvado ser que todos creen que es y tiene, en realidad, un gran corazón.

Ficha técnica

Video trailer de la película

Enlaces de descarga

Rip de Bluray

Descargar Beauty and the Beast (2017) REMUX 1080p Latino – CMHDD


Aportes de DPeliculasHDmega la pass es:dpeliculashdmega.org Aportes de CinemaniaHD la pass es:cinemaniahdd.com
Guardado en : Familia , Fantasía , Remux , Romance

Películas relacionadas

descargar Beauty and the Beast (2017) REMUX 1080p Latino – CMHDD Full 1080p 1080p gratis, Beauty and the Beast (2017) REMUX 1080p Latino – CMHDD Full 1080p mega 1 link, Beauty and the Beast (2017) REMUX 1080p Latino – CMHDD Full 1080p pelicula completa, descargar Beauty and the Beast (2017) REMUX 1080p Latino – CMHDD Full 1080p gratis en mega.

Beauty and the Beast (2017) REMUX 1080p Latino – CMHDD pelicula full hd, Beauty and the Beast (2017) REMUX 1080p Latino – CMHDD mega latino, Beauty and the Beast (2017) REMUX 1080p Latino – CMHDD 4k latino, Beauty and the Beast (2017) REMUX 1080p Latino – CMHDD pelicula completa, Beauty and the Beast (2017) REMUX 1080p Latino – CMHDD descargar gratis, descargar Beauty and the Beast (2017) REMUX 1080p Latino – CMHDD pelicula latino, Beauty and the Beast (2017) REMUX 1080p Latino – CMHDD 1 link mega, Beauty and the Beast (2017) REMUX 1080p Latino – CMHDD 1 link google drive, Beauty and the Beast (2017) REMUX 1080p Latino – CMHDD hd 1080p latino.
Comentarios 0