×

¿Problemas para descargar con Mozilla, EDGE? Deshabilita la opción "Abrir vinculos en una pestaña nueva" tal como lo muestra ésta imagen.

Beautiful Boy: Siempre serás mi hijo (2018) REMUX 1080p Latino

395 vistas

Información de Beautiful Boy: Siempre serás mi hijo (2018) REMUX 1080p Latino

beautiful boy siempre seras mi hijo 56757 poster

Datos de la película

  • Calidad: Full 1080p
  • Audio: Se especifica abajo de la Sinopsis
  • Subtitulos: Español Latino SRT- FORZADOS SRT
  • Resolución: 1920x1080p
  • Formato: MKV
  • Codec: H.264
  • Encoder: CinefiloCool
  • Mediainfo: Clic para Mostrar Datos Ver
  • Beautiful Boy (2018) REMUX 1080p Latino-CMHDD.mkv
    Format                      : Matroska
    Format version              : Version 4
    File size                   : 28.6 GiB
    Duration                    : 2 h 0 min
    Overall bit rate mode       : Variable
    Overall bit rate            : 33.9 Mb/s
    Movie name                  : CinemaniaHDD.Net
    Encoded date                : UTC 2019-09-10 04:43:08
    Writing application         : mkvmerge v35.0.0 ('All The Love In The World') 64-bit
    Writing library             : libebml v1.3.9 + libmatroska v1.5.2
    Attachments                 : CINEMANIAHD.png

    Video
    ID                          : 1
    Format                      : AVC
    Format/Info                 : Advanced Video Codec
    Format profile              : High@L4.1
    Format settings             : CABAC / 4 Ref Frames
    Format settings, CABAC      : Yes
    Format settings, ReFrames   : 4 frames
    Codec ID                    : V_MPEG4/ISO/AVC
    Duration                    : 2 h 0 min
    Bit rate mode               : Variable
    Bit rate                    : 29.6 Mb/s
    Maximum bit rate            : 35.0 Mb/s
    Width                       : 1 920 pixels
    Height                      : 1 080 pixels
    Display aspect ratio        : 16:9
    Frame rate mode             : Constant
    Frame rate                  : 23.976 (24000/1001) FPS
    Standard                    : NTSC
    Color space                 : YUV
    Chroma subsampling          : 4:2:0
    Bit depth                   : 8 bits
    Scan type                   : Progressive
    Bits/(Pixel*Frame)          : 0.596
    Stream size                 : 25.0 GiB (87%)
    Title                       : Full HD1080p [REMUX]
    Default                     : Yes
    Forced                      : No
    Color range                 : Limited
    Color primaries             : BT.709
    Transfer characteristics    : BT.709
    Matrix coefficients         : BT.709

    Audio #1
    ID                          : 2
    Format                      : AC-3
    Format/Info                 : Audio Coding 3
    Commercial name             : Dolby Digital
    Codec ID                    : A_AC3
    Duration                    : 2 h 0 min
    Bit rate mode               : Constant
    Bit rate                    : 640 kb/s
    Channel(s)                  : 6 channels
    Channel layout              : L R C LFE Ls Rs
    Sampling rate               : 48.0 kHz
    Frame rate                  : 31.250 FPS (1536 SPF)
    Bit depth                   : 16 bits
    Compression mode            : Lossy
    Stream size                 : 553 MiB (2%)
    Title                       : AC3_5.1_Web_Esp
    Language                    : Spanish
    Service kind                : Complete Main
    Default                     : Yes
    Forced                      : Yes

    Audio #2
    ID                          : 3
    Format                      : MLP FBA
    Format/Info                 : Meridian Lossless Packing FBA
    Commercial name             : Dolby TrueHD
    Codec ID                    : A_TRUEHD
    Duration                    : 2 h 0 min
    Bit rate mode               : Variable
    Bit rate                    : 2 905 kb/s
    Maximum bit rate            : 5 232 kb/s
    Channel(s)                  : 6 channels
    Channel layout              : L R C LFE Ls Rs
    Sampling rate               : 48.0 kHz
    Frame rate                  : 1 200.000 FPS (40 SPF)
    Compression mode            : Lossless
    Stream size                 : 2.45 GiB (9%)
    Title                       : THD_5.1_Bluray_Eng
    Language                    : English
    Default                     : No
    Forced                      : No

    Audio #3
    ID                          : 4
    Format                      : AC-3
    Format/Info                 : Audio Coding 3
    Commercial name             : Dolby Digital
    Codec ID                    : A_AC3
    Duration                    : 2 h 0 min
    Bit rate mode               : Constant
    Bit rate                    : 640 kb/s
    Channel(s)                  : 6 channels
    Channel layout              : L R C LFE Ls Rs
    Sampling rate               : 48.0 kHz
    Frame rate                  : 31.250 FPS (1536 SPF)
    Bit depth                   : 16 bits
    Compression mode            : Lossy
    Stream size                 : 553 MiB (2%)
    Title                       : AC3_5.1_Bluray_Eng
    Language                    : English
    Service kind                : Complete Main
    Default                     : No
    Forced                      : No

    Text #1
    ID                          : 5
    Format                      : UTF-8
    Codec ID                    : S_TEXT/UTF8
    Codec ID/Info               : UTF-8 Plain Text
    Duration                    : 1 h 57 min
    Bit rate                    : 7 b/s
    Count of elements           : 125
    Stream size                 : 6.31 KiB (0%)
    Title                       : Sub_Forzados
    Language                    : Spanish
    Default                     : Yes
    Forced                      : Yes

    Text #2
    ID                          : 6
    Format                      : UTF-8
    Codec ID                    : S_TEXT/UTF8
    Codec ID/Info               : UTF-8 Plain Text
    Duration                    : 1 h 49 min
    Bit rate                    : 44 b/s
    Count of elements           : 1263
    Stream size                 : 35.8 KiB (0%)
    Title                       : Sub_Esp
    Language                    : Spanish
    Default                     : No
    Forced                      : No

    Text #3
    ID                          : 7
    Format                      : PGS
    Muxing mode                 : zlib
    Codec ID                    : S_HDMV/PGS
    Codec ID/Info               : Picture based subtitle format used on BDs/HD-DVDs
    Duration                    : 2 h 0 min
    Bit rate                    : 26.4 kb/s
    Count of elements           : 3946
    Stream size                 : 22.8 MiB (0%)
    Title                       : Sub_Eng [PGS]
    Language                    : English
    Default                     : No
    Forced                      : No

    Menu
    00:00:00.000                : :Chapter 01
    00:15:41.899                : :Chapter 02
    00:30:48.847                : :Chapter 03
    00:44:45.933                : :Chapter 04
    01:00:38.593                : :Chapter 05
    01:18:15.524                : :Chapter 06
    01:36:07.470                : :Chapter 07
    01:51:04.199                : :Chapter 08

  • Peso: 28.6 GiB

Sinopsis

Descargar Beautiful Boy: Siempre serás mi hijo (2018) REMUX 1080p Latino. Crónica sobre la adicción a la metanfetamina y el intento de recuperación y de salir de las drogas a través de los ojos de un padre que observa a su hijo mientras lucha contra la enfermedad de la drogodependencia.

Audio Español Latino AC3 5.1 Web-DL – Ingles True-HD + AC3 5.1 Bluray

Ficha técnica

Video trailer de la película

Enlaces de descarga

Rip de Bluray

Descargar Beautiful Boy: Siempre serás mi hijo (2018) REMUX 1080p Latino




Aportes de DPeliculasHDmega la pass es:dpeliculashdmega.org Aportes de CinemaniaHD la pass es:cinemaniahdd.com
Guardado en : Drama , Remux

Películas relacionadas

  • Togo (2022) NF WEB-DL 1080p Latino

    Togo (2022) NF WEB-DL 1080p Latino

    2022
    Togo (2022) NF WEB-DL 1080p Latino

    1h 35m 2022

    Descargar Togo (2022) NF WEB-DL 1080p Latino. Los narcos de poca monta están copando las calles de Montevideo...

    Director: Adrián Caetano

    Género: Crimen

    Actores: Tito Prieto

  • El Ultimo Juego (2021) WEB-DL 1080p Latino

    El Ultimo Juego (2021) WEB-DL 1080p Latino

    2021
    El Ultimo Juego (2021) WEB-DL 1080p Latino

    1h 21m 2021

    Descargar El Ultimo Juego (2021) WEB-DL 1080p Latino. 6 extraños se despiertan dentro de una habitación...

    Director: John David Moffat IV

    Género: Drama

    Actores: Yasmin Irvine

descargar Beautiful Boy: Siempre serás mi hijo (2018) REMUX 1080p Latino Full 1080p 1080p gratis, Beautiful Boy: Siempre serás mi hijo (2018) REMUX 1080p Latino Full 1080p mega 1 link, Beautiful Boy: Siempre serás mi hijo (2018) REMUX 1080p Latino Full 1080p pelicula completa, descargar Beautiful Boy: Siempre serás mi hijo (2018) REMUX 1080p Latino Full 1080p gratis en mega.

Beautiful Boy: Siempre serás mi hijo (2018) REMUX 1080p Latino pelicula full hd, Beautiful Boy: Siempre serás mi hijo (2018) REMUX 1080p Latino mega latino, Beautiful Boy: Siempre serás mi hijo (2018) REMUX 1080p Latino 4k latino, Beautiful Boy: Siempre serás mi hijo (2018) REMUX 1080p Latino pelicula completa, Beautiful Boy: Siempre serás mi hijo (2018) REMUX 1080p Latino descargar gratis, descargar Beautiful Boy: Siempre serás mi hijo (2018) REMUX 1080p Latino pelicula latino, Beautiful Boy: Siempre serás mi hijo (2018) REMUX 1080p Latino 1 link mega, Beautiful Boy: Siempre serás mi hijo (2018) REMUX 1080p Latino 1 link google drive, Beautiful Boy: Siempre serás mi hijo (2018) REMUX 1080p Latino hd 1080p latino.
Comentarios 0