×

¿Problemas para descargar con Mozilla, EDGE? Deshabilita la opción "Abrir vinculos en una pestaña nueva" tal como lo muestra ésta imagen.

Beau Tiene Miedo (2023) HD 1080p Latino

238 vistas

Información de Beau Tiene Miedo (2023) HD 1080p Latino

Datos de la película

  • Calidad: 1080p
  • Audio: Español Latino AC3 5.1 WEB-DL - Ingles AC3 5.1 BLURAY
  • Subtitulos: Español Latino SRT- FORZADOS SRT
  • Resolución: 1920x1040p
  • Formato: MKV
  • Codec: H.264
  • Encoder: Melkor
  • Mediainfo: Clic para Mostrar Datos Ver
  • Beau Tiene Miedo (2023) HD 1080p Latino.mkv
    Format                      : Matroska
    Format version              : Version 4
    File size                   : 5.74 GiB
    Duration                    : 2 h 59 min
    Overall bit rate            : 4 592 kb/s
    Movie name                  : Beau Is Afraid (2023) CinemaniaHDD.Net
    Encoded date                : UTC 2023-07-06 15:35:28
    Writing application         : mkvmerge v56.1.0 ('My Friend') 64-bit
    Writing library             : libebml v1.4.2 + libmatroska v1.6.4
    Attachments                 : CINEMANIAHD.png
    Site                        : CinemaniaHDD.Net
    Uploader                    : Melkor

    Video
    ID                          : 1
    Format                      : AVC
    Format/Info                 : Advanced Video Codec
    Format profile              : High@L4.1
    Format settings             : CABAC / 4 Ref Frames
    Format settings, CABAC      : Yes
    Format settings, Reference  : 4 frames
    Codec ID                    : V_MPEG4/ISO/AVC
    Duration                    : 2 h 59 min
    Bit rate                    : 3 500 kb/s
    Width                       : 1 920 pixels
    Height                      : 1 040 pixels
    Display aspect ratio        : 1.85:1
    Frame rate mode             : Constant
    Frame rate                  : 23.976 (24000/1001) FPS
    Color space                 : YUV
    Chroma subsampling          : 4:2:0
    Bit depth                   : 8 bits
    Scan type                   : Progressive
    Bits/(Pixel*Frame)          : 0.073
    Stream size                 : 4.38 GiB (76%)
    Title                       : HD1080p [CinemaniaHDD]
    Writing library             : x264 core 163 r3059 b684ebe0
    Encoding settings           : cabac=1 / ref=4 / deblock=1:-1:-1 / analyse=0x3:0x133 / me=umh / subme=9 / psy=1 / psy_rd=1.00:0.15 / mixed_ref=1 / me_range=16 / chroma_me=1 / trellis=2 / 8x8dct=1 / cqm=0 / deadzone=21,11 / fast_pskip=1 / chroma_qp_offset=-3 / threads=24 / lookahead_threads=2 / sliced_threads=0 / nr=0 / decimate=1 / interlaced=0 / bluray_compat=0 / constrained_intra=0 / bframes=3 / b_pyramid=2 / b_adapt=2 / b_bias=0 / direct=3 / weightb=1 / open_gop=0 / weightp=2 / keyint=240 / keyint_min=24 / scenecut=40 / intra_refresh=0 / rc_lookahead=60 / rc=abr / mbtree=1 / bitrate=3500 / ratetol=1.0 / qcomp=0.60 / qpmin=0 / qpmax=69 / qpstep=4 / vbv_maxrate=62500 / vbv_bufsize=78125 / nal_hrd=none / filler=0 / ip_ratio=1.40 / aq=1:1.00
    Default                     : Yes
    Forced                      : Yes
    Color range                 : Limited
    Color primaries             : BT.709
    Transfer characteristics    : BT.709
    Matrix coefficients         : BT.709

    Audio #1
    ID                          : 2
    Format                      : AC-3
    Format/Info                 : Audio Coding 3
    Commercial name             : Dolby Digital
    Codec ID                    : A_AC3
    Duration                    : 2 h 59 min
    Bit rate mode               : Constant
    Bit rate                    : 640 kb/s
    Channel(s)                  : 6 channels
    Channel layout              : L R C LFE Ls Rs
    Sampling rate               : 48.0 kHz
    Frame rate                  : 31.250 FPS (1536 SPF)
    Compression mode            : Lossy
    Delay relative to video     : -5 ms
    Stream size                 : 820 MiB (14%)
    Title                       : Español Latino [CinemaniaHDD]
    Language                    : Spanish
    Service kind                : Complete Main
    Default                     : Yes
    Forced                      : Yes

    Audio #2
    ID                          : 3
    Format                      : AC-3
    Format/Info                 : Audio Coding 3
    Commercial name             : Dolby Digital
    Codec ID                    : A_AC3
    Duration                    : 2 h 59 min
    Bit rate mode               : Constant
    Bit rate                    : 448 kb/s
    Channel(s)                  : 6 channels
    Channel layout              : L R C LFE Ls Rs
    Sampling rate               : 48.0 kHz
    Frame rate                  : 31.250 FPS (1536 SPF)
    Compression mode            : Lossy
    Delay relative to video     : -5 ms
    Stream size                 : 574 MiB (10%)
    Title                       : Ingles [CinemaniaHDD]
    Language                    : English
    Service kind                : Complete Main
    Default                     : No
    Forced                      : No

    Text #1
    ID                          : 4
    Format                      : UTF-8
    Codec ID                    : S_TEXT/UTF8
    Codec ID/Info               : UTF-8 Plain Text
    Duration                    : 2 h 5 min
    Bit rate                    : 1 b/s
    Count of elements           : 58
    Stream size                 : 1.77 KiB (0%)
    Title                       : Forzados-SRT [CinemaniaHDD]
    Language                    : Spanish
    Default                     : Yes
    Forced                      : Yes

    Text #2
    ID                          : 5
    Format                      : UTF-8
    Codec ID                    : S_TEXT/UTF8
    Codec ID/Info               : UTF-8 Plain Text
    Duration                    : 2 h 57 min
    Bit rate                    : 41 b/s
    Count of elements           : 1889
    Stream size                 : 53.6 KiB (0%)
    Title                       : Español-SRT [CinemaniaHDD]
    Language                    : Spanish
    Default                     : No
    Forced                      : No

    Menu
    00:00:00.000                : Chapter 01
    00:08:30.176                : Chapter 02
    00:15:07.490                : Chapter 03
    00:25:25.524                : Chapter 04
    00:35:51.149                : Chapter 05
    00:45:39.737                : Chapter 06
    00:54:09.246                : Chapter 07
    01:03:18.795                : Chapter 08
    01:11:59.524                : Chapter 09
    01:23:30.005                : Chapter 10
    01:32:41.556                : Chapter 11
    01:36:58.813                : Chapter 12
    01:43:25.408                : Chapter 13
    01:52:37.751                : Chapter 14
    02:01:10.263                : Chapter 15
    02:11:54.323                : Chapter 16
    02:22:43.555                : Chapter 17
    02:32:33.561                : Chapter 18
    02:42:27.738                : Chapter 19
    02:53:56.426                : Chapter 20

  • Peso: 5.74 GiB

Sinopsis

Descargar Beau Tiene Miedo (2023) HD 1080p Latino. Beau (Joaquin Phoenix) es un hombre que tendrá que enfrentarse a sus miedos y paranoias al aventurarse en una épica odisea para llegar a casa de su controladora madre.

Ficha técnica

Video trailer de la película

Enlaces de descarga

Rip de Bluray

Descargar Beau Tiene Miedo (2023) HD 1080p Latino




Aportes de DPeliculasHDmega la pass es:dpeliculashdmega.org Aportes de CinemaniaHD la pass es:cinemaniahdd.com Aportes recientes:cinemaniahdd.net
Guardado en : Aventura , Comedia , Fantasía , HD 1080p

Películas relacionadas

descargar Beau Tiene Miedo (2023) HD 1080p Latino 1080p 1080p gratis, Beau Tiene Miedo (2023) HD 1080p Latino 1080p mega 1 link, Beau Tiene Miedo (2023) HD 1080p Latino 1080p pelicula completa, descargar Beau Tiene Miedo (2023) HD 1080p Latino 1080p gratis en mega.

Beau Tiene Miedo (2023) HD 1080p Latino pelicula full hd, Beau Tiene Miedo (2023) HD 1080p Latino mega latino, Beau Tiene Miedo (2023) HD 1080p Latino 4k latino, Beau Tiene Miedo (2023) HD 1080p Latino pelicula completa, Beau Tiene Miedo (2023) HD 1080p Latino descargar gratis, descargar Beau Tiene Miedo (2023) HD 1080p Latino pelicula latino, Beau Tiene Miedo (2023) HD 1080p Latino 1 link mega, Beau Tiene Miedo (2023) HD 1080p Latino 1 link google drive, Beau Tiene Miedo (2023) HD 1080p Latino hd 1080p latino.
Comentarios 0