×

¿Problemas para descargar con Mozilla, EDGE? Deshabilita la opción "Abrir vinculos en una pestaña nueva" tal como lo muestra ésta imagen.

Beastars (2019) Primera Temporada [NF] WEB-DL 1080p Latino – CMHDD

290 vistas

Información de Beastars (2019) Primera Temporada [NF] WEB-DL 1080p Latino – CMHDD

Datos de la película

  • Calidad: WEBDL
  • Audio: Se especifica abajo de la Sinopsis
  • Subtitulos: Español Latino SRT- FORZADOS SRT
  • Resolución: 1920x1080p
  • Formato: MKV
  • Codec: H.264
  • Encoder: Dracarys
  • Mediainfo: Clic para Mostrar Datos Ver
  • Format                      : Matroska
    Format version              : Version 4
    File size                   : 663 MiB
    Duration                    : 23 min 33 s
    Overall bit rate mode       : Variable
    Overall bit rate            : 3 936 kb/s
    Movie name                  : Beastars (2019) [S01E01] [NF] WEB-DL 1080p Latino - CMHDD
    Encoded date                : UTC 2020-10-24 17:41:17
    Writing application         : mkvmerge v51.0.0 ('I Wish') 64-bit
    Writing library             : libebml v1.4.0 + libmatroska v1.6.2

    Video
    ID                          : 1
    Format                      : AVC
    Format/Info                 : Advanced Video Codec
    Format profile              : Main@L4
    Format settings             : CABAC / 3 Ref Frames
    Format settings, CABAC      : Yes
    Format settings, Reference  : 3 frames
    Codec ID                    : V_MPEG4/ISO/AVC
    Duration                    : 23 min 33 s
    Bit rate mode               : Variable
    Bit rate                    : 3 480 kb/s
    Maximum bit rate            : 5 220 kb/s
    Width                       : 1 920 pixels
    Height                      : 1 080 pixels
    Display aspect ratio        : 16:9
    Frame rate mode             : Constant
    Frame rate                  : 23.976 (24000/1001) FPS
    Color space                 : YUV
    Chroma subsampling          : 4:2:0
    Bit depth                   : 8 bits
    Scan type                   : Progressive
    Bits/(Pixel*Frame)          : 0.070
    Stream size                 : 577 MiB (87%)
    Writing library             : x264 core 148 r2715 7e75228
    Encoding settings           : cabac=1 / ref=3 / deblock=1:0:0 / analyse=0x1:0x111 / me=umh / subme=10 / psy=1 / psy_rd=1.00:0.00 / mixed_ref=1 / me_range=24 / chroma_me=1 / trellis=2 / 8x8dct=0 / cqm=0 / deadzone=21,11 / fast_pskip=1 / chroma_qp_offset=-2 / threads=8 / lookahead_threads=1 / sliced_threads=0 / nr=0 / decimate=1 / interlaced=0 / bluray_compat=0 / stitchable=1 / constrained_intra=0 / bframes=2 / b_pyramid=0 / b_adapt=2 / b_bias=0 / direct=3 / weightb=1 / open_gop=0 / weightp=2 / keyint=250 / keyint_min=23 / scenecut=0 / intra_refresh=0 / rc_lookahead=48 / rc=2pass / mbtree=1 / bitrate=3480 / ratetol=1.0 / qcomp=0.50 / qpmin=6 / qpmax=51 / qpstep=4 / cplxblur=20.0 / qblur=0.5 / vbv_maxrate=5220 / vbv_bufsize=6960 / nal_hrd=vbr / filler=0 / ip_ratio=1.40 / aq=1:1.00
    Default                     : Yes
    Forced                      : No

    Audio #1
    ID                          : 2
    Format                      : E-AC-3
    Format/Info                 : Enhanced AC-3
    Commercial name             : Dolby Digital Plus
    Codec ID                    : A_EAC3
    Duration                    : 23 min 33 s
    Bit rate mode               : Constant
    Bit rate                    : 128 kb/s
    Channel(s)                  : 2 channels
    Channel layout              : L R
    Sampling rate               : 48.0 kHz
    Frame rate                  : 31.250 FPS (1536 SPF)
    Compression mode            : Lossy
    Stream size                 : 21.6 MiB (3%)
    Title                       : E-AC3
    Language                    : Spanish
    Service kind                : Complete Main
    Default                     : Yes
    Forced                      : No

    Audio #2
    ID                          : 3
    Format                      : AAC LC SBR
    Format/Info                 : Advanced Audio Codec Low Complexity with Spectral Band Replication
    Commercial name             : HE-AAC
    Format settings             : Explicit
    Codec ID                    : A_AAC-2
    Duration                    : 23 min 33 s
    Bit rate                    : 128 kb/s
    Channel(s)                  : 2 channels
    Channel layout              : L R
    Sampling rate               : 48.0 kHz
    Frame rate                  : 23.438 FPS (2048 SPF)
    Compression mode            : Lossy
    Stream size                 : 21.6 MiB (3%)
    Title                       : AAC
    Language                    : Spanish
    Default                     : No
    Forced                      : No

    Audio #3
    ID                          : 4
    Format                      : E-AC-3
    Format/Info                 : Enhanced AC-3
    Commercial name             : Dolby Digital Plus
    Codec ID                    : A_EAC3
    Duration                    : 23 min 33 s
    Bit rate mode               : Constant
    Bit rate                    : 128 kb/s
    Channel(s)                  : 2 channels
    Channel layout              : L R
    Sampling rate               : 48.0 kHz
    Frame rate                  : 31.250 FPS (1536 SPF)
    Compression mode            : Lossy
    Stream size                 : 21.6 MiB (3%)
    Title                       : E-AC3
    Language                    : English
    Service kind                : Complete Main
    Default                     : No
    Forced                      : No

    Audio #4
    ID                          : 5
    Format                      : AAC LC SBR
    Format/Info                 : Advanced Audio Codec Low Complexity with Spectral Band Replication
    Commercial name             : HE-AAC
    Format settings             : Explicit
    Codec ID                    : A_AAC-2
    Duration                    : 23 min 33 s
    Bit rate                    : 128 kb/s
    Channel(s)                  : 2 channels
    Channel layout              : L R
    Sampling rate               : 48.0 kHz
    Frame rate                  : 23.438 FPS (2048 SPF)
    Compression mode            : Lossy
    Stream size                 : 21.6 MiB (3%)
    Title                       : AAC
    Language                    : Japanese
    Default                     : No
    Forced                      : No

    Text #1
    ID                          : 6
    Format                      : UTF-8
    Codec ID                    : S_TEXT/UTF8
    Codec ID/Info               : UTF-8 Plain Text
    Duration                    : 22 min 59 s
    Bit rate                    : 1 b/s
    Count of elements           : 9
    Stream size                 : 335 Bytes (0%)
    Title                       : Spanish [Forced]
    Language                    : Spanish
    Default                     : No
    Forced                      : Yes

    Text #2
    ID                          : 7
    Format                      : UTF-8
    Codec ID                    : S_TEXT/UTF8
    Codec ID/Info               : UTF-8 Plain Text
    Duration                    : 22 min 57 s
    Bit rate                    : 49 b/s
    Count of elements           : 263
    Stream size                 : 8.32 KiB (0%)
    Title                       : Spanish [Full]
    Language                    : Spanish
    Default                     : No
    Forced                      : No

  • Peso: 9,29 GiB Total

Sinopsis

Serie de TV (2019). 1 temporada. 12 episodios. En un mundo de animales antropomórficos, carnívoros y herbívoros conviven unos con otros. Regoshi es un lobo miembro del club de teatro del instituto, y a pesar de su aspecto amenazante, es una buena persona. Siempre objeto de miedo y odio por los otros animales durante su niñez, verá en el club de teatro un lugar donde relacionarse más con sus compañeros, que también tienen sus propias inseguridades y miedos.

 

 

Latino: E-AC3 + AAC 2.0  –  Ingles: E-AC3 2.0  –  Japones: AAC 2.0

 

 

Ficha técnica

  • Titulo original: BEASTARS
  • Fecha de lanzamiento: 10-10-2019 (JP)
  • Género: Animación, Drama

Video trailer de la película

Enlaces de descarga

Rip de Bluray

Descargar Beastars (2019) Primera Temporada [NF] WEB-DL 1080p Latino – CMHDD




Aportes de DPeliculasHDmega la pass es:dpeliculashdmega.org Aportes de CinemaniaHD la pass es:cinemaniahdd.com
Guardado en : Animación , Drama

Películas relacionadas

  • After: Amor infinito (2022) AMZN WEB-DL 1080p Latino

    After: Amor infinito (2022) AMZN WEB-DL 1080p Latino

    2022
    After: Amor infinito (2022) AMZN WEB-DL 1080p Latino

    1h 35m 2022

    Descargar After: Amor infinito (2022) AMZN WEB-DL 1080p Latino. El amor de Tessa y Hardin nunca ha sido...

    Director: Castille Landon

    Género: Drama

    Actores: Velizar Nikolaev Biney

  • Blonde (2022) NF WEB-DL 1080p Latino

    Blonde (2022) NF WEB-DL 1080p Latino

    2022
    Blonde (2022) NF WEB-DL 1080p Latino

    2h 46m 2022

    Descargar Blonde (2022) NF WEB-DL 1080p Latino. Basada en el bestseller de la cinco veces finalista al...

    Director: Kristin Bree Calabrese

    Género: Drama

    Actores: Xavier Samuel

  • Infiniti (2022) Primera Temporada WEB-DL 1080p Latino

    Infiniti (2022) Primera Temporada WEB-DL 1080p Latino

    2022
    Infiniti (2022) Primera Temporada WEB-DL 1080p Latino

    0h 52m 2022

    La ISS, la Estación Espacial Internacional se ha quedado en silencio. La tripulación está en peligro....

    Director: Stéphane Pannetier

    Género: Drama

    Actores: Vlad Ivanov

  • Rick y Morty (2022) Temporada 6 WEB-DL 1080p Latino

    Rick y Morty (2022) Temporada 6 WEB-DL 1080p Latino

    2013
    Rick y Morty (2022) Temporada 6 WEB-DL 1080p Latino

    0h 22m 2013

    Comedia animada que narra las aventuras de un científico loco Rick Sánchez, que regresa después de...

    Director: Justin Roiland

    Género: Action & Adventure

    Actores: Spencer Grammer

descargar Beastars (2019) Primera Temporada [NF] WEB-DL 1080p Latino – CMHDD WEBDL 1080p gratis, Beastars (2019) Primera Temporada [NF] WEB-DL 1080p Latino – CMHDD WEBDL mega 1 link, Beastars (2019) Primera Temporada [NF] WEB-DL 1080p Latino – CMHDD WEBDL pelicula completa, descargar Beastars (2019) Primera Temporada [NF] WEB-DL 1080p Latino – CMHDD WEBDL gratis en mega.

Beastars (2019) Primera Temporada [NF] WEB-DL 1080p Latino – CMHDD pelicula full hd, Beastars (2019) Primera Temporada [NF] WEB-DL 1080p Latino – CMHDD mega latino, Beastars (2019) Primera Temporada [NF] WEB-DL 1080p Latino – CMHDD 4k latino, Beastars (2019) Primera Temporada [NF] WEB-DL 1080p Latino – CMHDD pelicula completa, Beastars (2019) Primera Temporada [NF] WEB-DL 1080p Latino – CMHDD descargar gratis, descargar Beastars (2019) Primera Temporada [NF] WEB-DL 1080p Latino – CMHDD pelicula latino, Beastars (2019) Primera Temporada [NF] WEB-DL 1080p Latino – CMHDD 1 link mega, Beastars (2019) Primera Temporada [NF] WEB-DL 1080p Latino – CMHDD 1 link google drive, Beastars (2019) Primera Temporada [NF] WEB-DL 1080p Latino – CMHDD hd 1080p latino.
Comentarios 0