×

¿Problemas para descargar con Mozilla, EDGE? Deshabilita la opción "Abrir vinculos en una pestaña nueva" tal como lo muestra ésta imagen.

Beartown (2021) Temporada 1 HBOGO WEB-DL 1080p Latino

343 vistas

Información de Beartown (2021) Temporada 1 HBOGO WEB-DL 1080p Latino

Datos de la película

  • Calidad: WEBDL
  • Audio: Se especifica abajo de la Sinopsis
  • Subtitulos: Español Latino SRT- FORZADOS SRT
  • Resolución: 1920x1080
  • Formato: MKV
  • Codec: H.264
  • Encoder: cinemaniahdd
  • Mediainfo: Clic para Mostrar Datos Ver
  • Beartown T01E03 HBOGO WEB-DL 1080p Latino [CNMNHDD].mkv
    Format                      : Matroska
    Format version              : Version 4
    File size                   : 1.49 GiB
    Duration                    : 52 min 48 s
    Overall bit rate mode       : Variable
    Overall bit rate            : 4 036 kb/s
    Movie name                  : Beartown T01E03 - CinemaniaHDD.Net
    Encoded date                : UTC 2021-03-14 23:24:25
    Writing application         : mkvmerge v51.0.0 ('I Wish') 64-bit
    Writing library             : libebml v1.4.0 + libmatroska v1.6.2

    Video
    ID                          : 1
    Format                      : AVC
    Format/Info                 : Advanced Video Codec
    Format profile              : High@L4
    Format settings             : CABAC / 4 Ref Frames
    Format settings, CABAC      : Yes
    Format settings, Reference  : 4 frames
    Codec ID                    : V_MPEG4/ISO/AVC
    Duration                    : 52 min 48 s
    Bit rate mode               : Variable
    Bit rate                    : 3 266 kb/s
    Maximum bit rate            : 5 100 kb/s
    Width                       : 1 920 pixels
    Height                      : 1 080 pixels
    Display aspect ratio        : 16:9
    Frame rate mode             : Constant
    Frame rate                  : 25.000 FPS
    Color space                 : YUV
    Chroma subsampling          : 4:2:0
    Bit depth                   : 8 bits
    Scan type                   : Progressive
    Bits/(Pixel*Frame)          : 0.063
    Stream size                 : 1.20 GiB (81%)
    Title                       : CinemaniaHDD
    Default                     : Yes
    Forced                      : No

    Audio #1
    ID                          : 2
    Format                      : AC-3
    Format/Info                 : Audio Coding 3
    Commercial name             : Dolby Digital
    Codec ID                    : A_AC3
    Duration                    : 52 min 48 s
    Bit rate mode               : Constant
    Bit rate                    : 384 kb/s
    Channel(s)                  : 2 channels
    Channel layout              : L R
    Sampling rate               : 48.0 kHz
    Frame rate                  : 31.250 FPS (1536 SPF)
    Compression mode            : Lossy
    Stream size                 : 145 MiB (10%)
    Title                       : Español latino [CinemaniaHDD]
    Language                    : Spanish
    Service kind                : Complete Main
    Default                     : Yes
    Forced                      : No

    Audio #2
    ID                          : 3
    Format                      : AC-3
    Format/Info                 : Audio Coding 3
    Commercial name             : Dolby Digital
    Codec ID                    : A_AC3
    Duration                    : 52 min 48 s
    Bit rate mode               : Constant
    Bit rate                    : 384 kb/s
    Channel(s)                  : 6 channels
    Channel layout              : L R C LFE Ls Rs
    Sampling rate               : 48.0 kHz
    Frame rate                  : 31.250 FPS (1536 SPF)
    Compression mode            : Lossy
    Stream size                 : 145 MiB (10%)
    Title                       : Sueco [CinemaniaHDD]
    Language                    : Swedish
    Service kind                : Complete Main
    Default                     : No
    Forced                      : No

    Text #1
    ID                          : 4
    Format                      : UTF-8
    Codec ID                    : S_TEXT/UTF8
    Codec ID/Info               : UTF-8 Plain Text
    Duration                    : 7 min 52 s
    Bit rate                    : 5 b/s
    Count of elements           : 10
    Stream size                 : 309 Bytes (0%)
    Title                       : Forzados [CinemaniaHDD]
    Language                    : Spanish
    Default                     : Yes
    Forced                      : Yes

    Text #2
    ID                          : 5
    Format                      : UTF-8
    Codec ID                    : S_TEXT/UTF8
    Codec ID/Info               : UTF-8 Plain Text
    Duration                    : 51 min 5 s
    Bit rate                    : 41 b/s
    Count of elements           : 541
    Stream size                 : 15.3 KiB (0%)
    Title                       : Español latino [CinemaniaHDD]
    Language                    : Spanish
    Default                     : No
    Forced                      : No

    Text #3
    ID                          : 6
    Format                      : UTF-8
    Codec ID                    : S_TEXT/UTF8
    Codec ID/Info               : UTF-8 Plain Text
    Duration                    : 51 min 34 s
    Bit rate                    : 37 b/s
    Count of elements           : 458
    Stream size                 : 14.1 KiB (0%)
    Title                       : Inglés [CinemaniaHDD]
    Language                    : English
    Default                     : No
    Forced                      : No

     

  • Peso: 1.49 GiB Aprox ---- 7.25 GiB in 5 Chapters.

Sinopsis

Basado en la exitosa novela homónima de Fredrik Backman, esta serie original de HBO explora un pequeño pueblo donde el hockey se ha convertido en su último faro de esperanza y la carga que descansa sobre los hombros de un equipo juvenil a punto de competir en las semifinales nacionales es pesada. Pero un oscuro secreto amenaza con destrozarlo todo.

Español Latino AC3 2.0 – Sueco AC3 5.1

FINAL DE TEMPORADA

Ficha técnica

Video trailer de la película

Enlaces de descarga

Rip de Bluray

Descargar Beartown (2021) Temporada 1 HBOGO WEB-DL 1080p Latino




Aportes de DPeliculasHDmega la pass es:dpeliculashdmega.org Aportes de CinemaniaHD la pass es:cinemaniahdd.com
Guardado en : Drama , HBO , Series

Películas relacionadas

descargar Beartown (2021) Temporada 1 HBOGO WEB-DL 1080p Latino WEBDL 1080p gratis, Beartown (2021) Temporada 1 HBOGO WEB-DL 1080p Latino WEBDL mega 1 link, Beartown (2021) Temporada 1 HBOGO WEB-DL 1080p Latino WEBDL serie completa, descargar Beartown (2021) Temporada 1 HBOGO WEB-DL 1080p Latino WEBDL gratis en mega.

Beartown (2021) Temporada 1 HBOGO WEB-DL 1080p Latino pelicula full hd, Beartown (2021) Temporada 1 HBOGO WEB-DL 1080p Latino mega latino, Beartown (2021) Temporada 1 HBOGO WEB-DL 1080p Latino 4k latino, Beartown (2021) Temporada 1 HBOGO WEB-DL 1080p Latino pelicula completa, Beartown (2021) Temporada 1 HBOGO WEB-DL 1080p Latino descargar gratis, descargar Beartown (2021) Temporada 1 HBOGO WEB-DL 1080p Latino pelicula latino, Beartown (2021) Temporada 1 HBOGO WEB-DL 1080p Latino 1 link mega, Beartown (2021) Temporada 1 HBOGO WEB-DL 1080p Latino 1 link google drive, Beartown (2021) Temporada 1 HBOGO WEB-DL 1080p Latino hd 1080p latino.
Comentarios 0