×

¿Problemas para descargar con Mozilla, EDGE? Deshabilita la opción "Abrir vinculos en una pestaña nueva" tal como lo muestra ésta imagen.

Baywatch (2017) [UNRATED] REMUX 4K HDR Latino – CMHDD

270 vistas

Información de Baywatch (2017) [UNRATED] REMUX 4K HDR Latino – CMHDD

Datos de la película

  • Calidad: 4K HDR
  • Audio: Se especifica abajo de la Sinopsis
  • Subtitulos: Español Latino PGS
  • Resolución: 3840x2160p
  • Formato: MKV
  • Codec: HEVC
  • Encoder: Dracarys
  • Mediainfo: Clic para Mostrar Datos Ver
  • Format                      : Matroska
    Format version              : Version 4
    File size                   : 46.4 GiB
    Duration                    : 2 h 1 min
    Overall bit rate mode       : Variable
    Overall bit rate            : 54.7 Mb/s
    Movie name                  : Baywatch (2017) [UNRATED] REMUX 4K HDR Latino - CMHDD
    Encoded date                : UTC 2021-05-30 22:04:57
    Writing application         : mkvmerge v56.1.0 ('My Friend') 64-bit
    Writing library             : libebml v1.4.2 + libmatroska v1.6.4
    Cover                       : Yes
    Attachments                 : cover.jpg

    Video
    ID                          : 1
    Format                      : HEVC
    Format/Info                 : High Efficiency Video Coding
    Format profile              : Main 10@L5.1@High
    HDR format                  : SMPTE ST 2086, HDR10 compatible
    Codec ID                    : V_MPEGH/ISO/HEVC
    Duration                    : 2 h 1 min
    Bit rate                    : 49.3 Mb/s
    Width                       : 3 840 pixels
    Height                      : 2 160 pixels
    Display aspect ratio        : 16:9
    Frame rate mode             : Constant
    Frame rate                  : 23.976 (23976/1000) FPS
    Original frame rate         : 23.976 (24000/1001) FPS
    Color space                 : YUV
    Chroma subsampling          : 4:2:0 (Type 2)
    Bit depth                   : 10 bits
    Bits/(Pixel*Frame)          : 0.248
    Stream size                 : 41.8 GiB (90%)
    Default                     : Yes
    Forced                      : No
    Color range                 : Limited
    Color primaries             : BT.2020
    Transfer characteristics    : PQ
    Matrix coefficients         : BT.2020 non-constant
    Mastering display color pri : Display P3
    Mastering display luminance : min: 0.0000 cd/m2, max: 1000 cd/m2
    Maximum Content Light Level : 1000 cd/m2
    Maximum Frame-Average Light : 386 cd/m2

    Audio #1
    ID                          : 2
    Format                      : MLP FBA 16-ch
    Format/Info                 : Meridian Lossless Packing FBA with 16-channel presentation
    Commercial name             : Dolby TrueHD with Dolby Atmos
    Codec ID                    : A_TRUEHD
    Duration                    : 2 h 1 min
    Bit rate mode               : Variable
    Bit rate                    : 4 684 kb/s
    Maximum bit rate            : 7 380 kb/s
    Channel(s)                  : 8 channels
    Channel layout              : L R C LFE Ls Rs Lb Rb
    Sampling rate               : 48.0 kHz
    Frame rate                  : 1 200.000 FPS (40 SPF)
    Compression mode            : Lossless
    Stream size                 : 3.97 GiB (9%)
    Language                    : English
    Default                     : No
    Forced                      : No
    Number of dynamic objects   : 11
    Bed channel count           : 1 channel
    Bed channel configuration   : LFE

    Audio #2
    ID                          : 3
    Format                      : AC-3
    Format/Info                 : Audio Coding 3
    Commercial name             : Dolby Digital
    Codec ID                    : A_AC3
    Duration                    : 2 h 1 min
    Bit rate mode               : Constant
    Bit rate                    : 640 kb/s
    Channel(s)                  : 6 channels
    Channel layout              : L R C LFE Ls Rs
    Sampling rate               : 48.0 kHz
    Frame rate                  : 31.250 FPS (1536 SPF)
    Compression mode            : Lossy
    Stream size                 : 556 MiB (1%)
    Language                    : Spanish
    Service kind                : Complete Main
    Default                     : Yes
    Forced                      : No

    Text
    ID                          : 4
    Format                      : PGS
    Muxing mode                 : zlib
    Codec ID                    : S_HDMV/PGS
    Codec ID/Info               : Picture based subtitle format used on BDs/HD-DVDs
    Duration                    : 1 h 56 min
    Bit rate                    : 40.6 kb/s
    Count of elements           : 3498
    Stream size                 : 33.7 MiB (0%)
    Language                    : Spanish
    Default                     : No
    Forced                      : No

    Menu
    00:00:00.000                : Chapter 01
    00:08:55.534                : Chapter 02
    00:16:54.346                : Chapter 03
    00:21:01.802                : Chapter 04
    00:29:40.945                : Chapter 05
    00:38:03.614                : Chapter 06
    00:44:55.067                : Chapter 07
    00:50:33.446                : Chapter 08
    01:01:29.936                : Chapter 09
    01:11:48.804                : Chapter 10
    01:19:44.654                : Chapter 11
    01:29:00.793                : Chapter 12
    01:35:23.175                : Chapter 13
    01:44:31.640                : Chapter 14
    01:50:07.267                : Chapter 15
    01:54:52.426                : Chapter 16

  • Peso: 46.4 GiB

Sinopsis

Mitch Buchannon (Dwayne Johnson), un estricto y esforzado socorrista de la antigua escuela, deberá trabajar codo con codo con el rebelde Matt Brody (Zac Efron), un joven ex nadador olímpico caído en desgracia al que le gusta saltarse las normas. A pesar de tener personalidades opuestas, los dos socorristas deberán unir fuerzas y formar equipo. Juntos descubrirán una trama criminal, en torno a drogas y asesinos, que amenaza el futuro de la Bahía. Su objetivo será proteger la playa de su destrucción a manos de un magnate del petróleo.

 

 

Latino: AC3 5.1  –  Ingles: TreHD 7.1

Ficha técnica

Video trailer de la película

Enlaces de descarga

Rip de Bluray

Descargar Baywatch (2017) [UNRATED] REMUX 4K HDR Latino – CMHDD


Aportes de DPeliculasHDmega la pass es:dpeliculashdmega.org Aportes de CinemaniaHD la pass es:cinemaniahdd.com
Guardado en : Acción , Comedia , Crimen

Películas relacionadas

  • DC Liga De Supermascotas (2022) HD 1080p Latino

    DC Liga De Supermascotas (2022) HD 1080p Latino

    2022
    DC Liga De Supermascotas (2022) HD 1080p Latino

    1h 45m 2022

    Descargar DC Liga De Supermascotas (2022) HD 1080p Latino. Krypto el Superperro y Superman son amigos...

    Director: Sam Levine

    Género: Acción

    Actores: Yvette Nicole Brown

  • Rick and Morty (2022) Temporada 6 WEB-DL 1080p Latino

    Rick and Morty (2022) Temporada 6 WEB-DL 1080p Latino

    2013
    Rick and Morty (2022) Temporada 6 WEB-DL 1080p Latino

    0h 22m 2013

    Comedia animada que narra las aventuras de un científico loco Rick Sánchez, que regresa después de...

    Director: Justin Roiland

    Género: Action & Adventure

    Actores: Spencer Grammer

  • Tremors (1990) REMUX 4K HDR Latino – CMHDD

    Tremors (1990) REMUX 4K HDR Latino – CMHDD

    1990
    Tremors (1990) REMUX 4K HDR Latino – CMHDD

    1h 35m 1990

    En Perfección, un pequeño pueblo al borde del desierto de Nevada, algo parece suceder debajo de la...

    Director: Susan Bierbaum

    Género: Acción

    Actores: Victor Wong

descargar Baywatch (2017) [UNRATED] REMUX 4K HDR Latino – CMHDD 4K HDR 1080p gratis, Baywatch (2017) [UNRATED] REMUX 4K HDR Latino – CMHDD 4K HDR mega 1 link, Baywatch (2017) [UNRATED] REMUX 4K HDR Latino – CMHDD 4K HDR pelicula completa, descargar Baywatch (2017) [UNRATED] REMUX 4K HDR Latino – CMHDD 4K HDR gratis en mega.

Baywatch (2017) [UNRATED] REMUX 4K HDR Latino – CMHDD pelicula full hd, Baywatch (2017) [UNRATED] REMUX 4K HDR Latino – CMHDD mega latino, Baywatch (2017) [UNRATED] REMUX 4K HDR Latino – CMHDD 4k latino, Baywatch (2017) [UNRATED] REMUX 4K HDR Latino – CMHDD pelicula completa, Baywatch (2017) [UNRATED] REMUX 4K HDR Latino – CMHDD descargar gratis, descargar Baywatch (2017) [UNRATED] REMUX 4K HDR Latino – CMHDD pelicula latino, Baywatch (2017) [UNRATED] REMUX 4K HDR Latino – CMHDD 1 link mega, Baywatch (2017) [UNRATED] REMUX 4K HDR Latino – CMHDD 1 link google drive, Baywatch (2017) [UNRATED] REMUX 4K HDR Latino – CMHDD hd 1080p latino.
Comentarios 0