×

¿Problemas para descargar con Mozilla, EDGE? Deshabilita la opción "Abrir vinculos en una pestaña nueva" tal como lo muestra ésta imagen.

Baywatch (2017) [UNRATED] REMUX 1080p Latino – CMHDD

381 vistas

Información de Baywatch (2017) [UNRATED] REMUX 1080p Latino – CMHDD

Datos de la película

  • Calidad: Full 1080p
  • Audio: Se especifica abajo de la Sinopsis
  • Subtitulos: Español Latino PGS
  • Resolución: 1920x1080p
  • Formato: MKV
  • Codec: H.264
  • Encoder: Dracarys
  • Mediainfo: Clic para Mostrar Datos Ver
  • Format                      : Matroska
    Format version              : Version 4
    File size                   : 27.0 GiB
    Duration                    : 2 h 1 min
    Overall bit rate mode       : Variable
    Overall bit rate            : 31.8 Mb/s
    Movie name                  : Baywatch (2017) [UNRATED] REMUX 1080p Latino - CMHDD
    Encoded date                : UTC 2021-05-23 03:48:52
    Writing application         : mkvmerge v56.1.0 ('My Friend') 64-bit
    Writing library             : libebml v1.4.2 + libmatroska v1.6.4
    Cover                       : Yes
    Attachments                 : cover.jpg

    Video
    ID                          : 1
    Format                      : AVC
    Format/Info                 : Advanced Video Codec
    Format profile              : High@L4.1
    Format settings             : CABAC / 2 Ref Frames
    Format settings, CABAC      : Yes
    Format settings, Reference  : 2 frames
    Codec ID                    : V_MPEG4/ISO/AVC
    Duration                    : 2 h 1 min
    Bit rate mode               : Variable
    Bit rate                    : 25.8 Mb/s
    Width                       : 1 920 pixels
    Height                      : 1 080 pixels
    Display aspect ratio        : 16:9
    Frame rate mode             : Constant
    Frame rate                  : 23.976 (23976/1000) FPS
    Original frame rate         : 23.976 (24000/1001) FPS
    Color space                 : YUV
    Chroma subsampling          : 4:2:0
    Bit depth                   : 8 bits
    Scan type                   : Progressive
    Bits/(Pixel*Frame)          : 0.519
    Stream size                 : 21.9 GiB (81%)
    Default                     : Yes
    Forced                      : No

    Audio #1
    ID                          : 2
    Format                      : MLP FBA 16-ch
    Format/Info                 : Meridian Lossless Packing FBA with 16-channel presentation
    Commercial name             : Dolby TrueHD with Dolby Atmos
    Codec ID                    : A_TRUEHD
    Duration                    : 2 h 1 min
    Bit rate mode               : Variable
    Bit rate                    : 4 685 kb/s
    Maximum bit rate            : 7 380 kb/s
    Channel(s)                  : 8 channels
    Channel layout              : L R C LFE Ls Rs Lb Rb
    Sampling rate               : 48.0 kHz
    Frame rate                  : 1 200.000 FPS (40 SPF)
    Compression mode            : Lossless
    Delay relative to video     : 1 ms
    Stream size                 : 3.97 GiB (15%)
    Language                    : English
    Default                     : No
    Forced                      : No
    Number of dynamic objects   : 11
    Bed channel count           : 1 channel
    Bed channel configuration   : LFE

    Audio #2
    ID                          : 3
    Format                      : AC-3
    Format/Info                 : Audio Coding 3
    Commercial name             : Dolby Digital
    Codec ID                    : A_AC3
    Duration                    : 2 h 1 min
    Bit rate mode               : Constant
    Bit rate                    : 640 kb/s
    Channel(s)                  : 6 channels
    Channel layout              : L R C LFE Ls Rs
    Sampling rate               : 48.0 kHz
    Frame rate                  : 31.250 FPS (1536 SPF)
    Compression mode            : Lossy
    Delay relative to video     : 1 ms
    Stream size                 : 556 MiB (2%)
    Language                    : English
    Service kind                : Complete Main
    Default                     : No
    Forced                      : No

    Audio #3
    ID                          : 4
    Format                      : AC-3
    Format/Info                 : Audio Coding 3
    Commercial name             : Dolby Digital
    Codec ID                    : A_AC3
    Duration                    : 2 h 1 min
    Bit rate mode               : Constant
    Bit rate                    : 640 kb/s
    Channel(s)                  : 6 channels
    Channel layout              : L R C LFE Ls Rs
    Sampling rate               : 48.0 kHz
    Frame rate                  : 31.250 FPS (1536 SPF)
    Compression mode            : Lossy
    Stream size                 : 556 MiB (2%)
    Language                    : Spanish
    Service kind                : Complete Main
    Default                     : Yes
    Forced                      : No

    Text
    ID                          : 5
    Format                      : PGS
    Muxing mode                 : zlib
    Codec ID                    : S_HDMV/PGS
    Codec ID/Info               : Picture based subtitle format used on BDs/HD-DVDs
    Duration                    : 1 h 56 min
    Bit rate                    : 40.6 kb/s
    Count of elements           : 3498
    Stream size                 : 33.7 MiB (0%)
    Language                    : Spanish
    Default                     : No
    Forced                      : No

    Menu
    00:00:00.000                : Chapter 01
    00:08:55.534                : Chapter 02
    00:16:54.346                : Chapter 03
    00:21:01.802                : Chapter 04
    00:29:40.945                : Chapter 05
    00:38:03.614                : Chapter 06
    00:44:55.067                : Chapter 07
    00:50:33.447                : Chapter 08
    01:01:29.936                : Chapter 09
    01:11:48.804                : Chapter 10
    01:19:44.654                : Chapter 11
    01:29:00.793                : Chapter 12
    01:35:23.175                : Chapter 13
    01:44:31.640                : Chapter 14
    01:50:07.267                : Chapter 15
    01:54:52.427                : Chapter 16

  • Peso: 27.0 GiB

Sinopsis

Mitch Buchannon (Dwayne Johnson), un estricto y esforzado socorrista de la antigua escuela, deberá trabajar codo con codo con el rebelde Matt Brody (Zac Efron), un joven ex nadador olímpico caído en desgracia al que le gusta saltarse las normas. A pesar de tener personalidades opuestas, los dos socorristas deberán unir fuerzas y formar equipo. Juntos descubrirán una trama criminal, en torno a drogas y asesinos, que amenaza el futuro de la Bahía. Su objetivo será proteger la playa de su destrucción a manos de un magnate del petróleo.

 

 

Latino: AC3 5.1  –  Ingles: TreHD 7.1

Ficha técnica

Video trailer de la película

Enlaces de descarga

Rip de Bluray

Descargar Baywatch (2017) [UNRATED] REMUX 1080p Latino – CMHDD


Aportes de DPeliculasHDmega la pass es:dpeliculashdmega.org Aportes de CinemaniaHD la pass es:cinemaniahdd.com
Guardado en : Acción , Comedia , Crimen

Películas relacionadas

descargar Baywatch (2017) [UNRATED] REMUX 1080p Latino – CMHDD Full 1080p 1080p gratis, Baywatch (2017) [UNRATED] REMUX 1080p Latino – CMHDD Full 1080p mega 1 link, Baywatch (2017) [UNRATED] REMUX 1080p Latino – CMHDD Full 1080p pelicula completa, descargar Baywatch (2017) [UNRATED] REMUX 1080p Latino – CMHDD Full 1080p gratis en mega.

Baywatch (2017) [UNRATED] REMUX 1080p Latino – CMHDD pelicula full hd, Baywatch (2017) [UNRATED] REMUX 1080p Latino – CMHDD mega latino, Baywatch (2017) [UNRATED] REMUX 1080p Latino – CMHDD 4k latino, Baywatch (2017) [UNRATED] REMUX 1080p Latino – CMHDD pelicula completa, Baywatch (2017) [UNRATED] REMUX 1080p Latino – CMHDD descargar gratis, descargar Baywatch (2017) [UNRATED] REMUX 1080p Latino – CMHDD pelicula latino, Baywatch (2017) [UNRATED] REMUX 1080p Latino – CMHDD 1 link mega, Baywatch (2017) [UNRATED] REMUX 1080p Latino – CMHDD 1 link google drive, Baywatch (2017) [UNRATED] REMUX 1080p Latino – CMHDD hd 1080p latino.
Comentarios 0