×

¿Problemas para descargar con Mozilla, EDGE? Deshabilita la opción "Abrir vinculos en una pestaña nueva" tal como lo muestra ésta imagen.

Baywatch (2017) [UNRATED] Full HD 1080p Latino – CMHDD

165 vistas

Información de Baywatch (2017) [UNRATED] Full HD 1080p Latino – CMHDD

Datos de la película

  • Calidad: Full 1080p
  • Audio: Español Latino AC3 5.1 BLURAY - Ingles AC3 5.1 BLURAY
  • Subtitulos: Español Latino PGS
  • Resolución: 1920x1080p
  • Formato: MKV
  • Codec: H.264
  • Encoder: Dracarys
  • Mediainfo: Clic para Mostrar Datos Ver
  • Format                      : Matroska
    Format version              : Version 4
    File size                   : 4.86 GiB
    Duration                    : 2 h 1 min
    Overall bit rate            : 5 727 kb/s
    Movie name                  : Baywatch (2017) [UNRATED] Full HD 1080p Latino - CMHDD
    Encoded date                : UTC 2021-06-13 04:06:22
    Writing application         : mkvmerge v56.1.0 ('My Friend') 64-bit
    Writing library             : libebml v1.4.2 + libmatroska v1.6.4

    Video
    ID                          : 1
    Format                      : AVC
    Format/Info                 : Advanced Video Codec
    Format profile              : High@L4.1
    Format settings             : CABAC / 4 Ref Frames
    Format settings, CABAC      : Yes
    Format settings, Reference  : 4 frames
    Codec ID                    : V_MPEG4/ISO/AVC
    Duration                    : 2 h 1 min
    Bit rate                    : 4 433 kb/s
    Width                       : 1 920 pixels
    Height                      : 1 080 pixels
    Display aspect ratio        : 16:9
    Frame rate mode             : Constant
    Frame rate                  : 23.976 (24000/1001) FPS
    Color space                 : YUV
    Chroma subsampling          : 4:2:0
    Bit depth                   : 8 bits
    Scan type                   : Progressive
    Bits/(Pixel*Frame)          : 0.089
    Stream size                 : 3.76 GiB (77%)
    Writing library             : x264 core 157 r2935 545de2f
    Encoding settings           : cabac=1 / ref=4 / deblock=1:0:0 / analyse=0x3:0x133 / me=tesa / subme=11 / psy=1 / psy_rd=1.00:0.00 / mixed_ref=1 / me_range=24 / chroma_me=1 / trellis=2 / 8x8dct=1 / cqm=0 / deadzone=21,11 / fast_pskip=0 / chroma_qp_offset=-2 / threads=24 / lookahead_threads=6 / sliced_threads=0 / nr=0 / decimate=1 / interlaced=0 / bluray_compat=0 / constrained_intra=0 / bframes=16 / b_pyramid=2 / b_adapt=2 / b_bias=0 / direct=3 / weightb=1 / open_gop=0 / weightp=2 / keyint=240 / keyint_min=24 / scenecut=40 / intra_refresh=0 / rc_lookahead=60 / rc=crf / mbtree=1 / crf=20.0 / qcomp=0.60 / qpmin=0 / qpmax=69 / qpstep=4 / vbv_maxrate=62500 / vbv_bufsize=78125 / crf_max=0.0 / nal_hrd=none / filler=0 / ip_ratio=1.40 / aq=1:1.00
    Default                     : Yes
    Forced                      : No
    Color range                 : Limited
    Color primaries             : BT.709
    Transfer characteristics    : BT.709
    Matrix coefficients         : BT.709

    Audio #1
    ID                          : 2
    Format                      : AC-3
    Format/Info                 : Audio Coding 3
    Commercial name             : Dolby Digital
    Codec ID                    : A_AC3
    Duration                    : 2 h 1 min
    Bit rate mode               : Constant
    Bit rate                    : 640 kb/s
    Channel(s)                  : 6 channels
    Channel layout              : L R C LFE Ls Rs
    Sampling rate               : 48.0 kHz
    Frame rate                  : 31.250 FPS (1536 SPF)
    Compression mode            : Lossy
    Stream size                 : 556 MiB (11%)
    Language                    : Spanish
    Service kind                : Complete Main
    Default                     : Yes
    Forced                      : No

    Audio #2
    ID                          : 3
    Format                      : AC-3
    Format/Info                 : Audio Coding 3
    Commercial name             : Dolby Digital
    Codec ID                    : A_AC3
    Duration                    : 2 h 1 min
    Bit rate mode               : Constant
    Bit rate                    : 640 kb/s
    Channel(s)                  : 6 channels
    Channel layout              : L R C LFE Ls Rs
    Sampling rate               : 48.0 kHz
    Frame rate                  : 31.250 FPS (1536 SPF)
    Compression mode            : Lossy
    Delay relative to video     : 1 ms
    Stream size                 : 556 MiB (11%)
    Language                    : English
    Service kind                : Complete Main
    Default                     : No
    Forced                      : No

    Text
    ID                          : 4
    Format                      : PGS
    Muxing mode                 : zlib
    Codec ID                    : S_HDMV/PGS
    Codec ID/Info               : Picture based subtitle format used on BDs/HD-DVDs
    Duration                    : 1 h 56 min
    Bit rate                    : 40.6 kb/s
    Count of elements           : 3498
    Stream size                 : 33.7 MiB (1%)
    Language                    : Spanish
    Default                     : No
    Forced                      : No

    Menu
    00:00:00.000                : :Chapter 1
    00:08:55.535                : :Chapter 2
    00:16:54.305                : :Chapter 3
    00:21:01.761                : :Chapter 4
    00:29:40.946                : :Chapter 5
    00:38:03.656                : :Chapter 6
    00:44:55.109                : :Chapter 7
    00:50:33.489                : :Chapter 8
    01:01:29.936                : :Chapter 9
    01:11:48.763                : :Chapter 10
    01:19:44.613                : :Chapter 11
    01:29:00.710                : :Chapter 12
    01:35:23.092                : :Chapter 13
    01:44:31.474                : :Chapter 14
    01:50:07.101                : :Chapter 15
    01:54:52.219                : :Chapter 16

  • Peso: 4.86 GiB

Sinopsis

Mitch Buchannon (Dwayne Johnson), un estricto y esforzado socorrista de la antigua escuela, deberá trabajar codo con codo con el rebelde Matt Brody (Zac Efron), un joven ex nadador olímpico caído en desgracia al que le gusta saltarse las normas. A pesar de tener personalidades opuestas, los dos socorristas deberán unir fuerzas y formar equipo. Juntos descubrirán una trama criminal, en torno a drogas y asesinos, que amenaza el futuro de la Bahía. Su objetivo será proteger la playa de su destrucción a manos de un magnate del petróleo.

Ficha técnica

Video trailer de la película

Enlaces de descarga

Rip de Bluray

Descargar Baywatch (2017) [UNRATED] Full HD 1080p Latino – CMHDD




Aportes de DPeliculasHDmega la pass es:dpeliculashdmega.org Aportes de CinemaniaHD la pass es:cinemaniahdd.com
Guardado en : Acción , Comedia , Crimen

Películas relacionadas

  • Wire Room (2022) HD 1080p Latino

    Wire Room (2022) HD 1080p Latino

    2022
    Wire Room (2022) HD 1080p Latino

    1h 37m 2022

    Descargar Wire Room (2022) HD 1080p Latino. Mientras está de servicio en la sala de cables, un agente...

    Director: Matt Eskandari

    Género: Acción

    Actores: Texas Battle

  • Wire Room (2022) PLACEBO Full HD 1080p Latino

    Wire Room (2022) PLACEBO Full HD 1080p Latino

    2022
    Wire Room (2022) PLACEBO Full HD 1080p Latino

    1h 37m 2022

    Descargar Wire Room (2022) PLACEBO Full HD 1080p Latino. Mientras está de servicio en la sala de cables,...

    Director: Matt Eskandari

    Género: Acción

    Actores: Texas Battle

  • Wire Room (2022) REMUX 1080p Latino

    Wire Room (2022) REMUX 1080p Latino

    2022
    Wire Room (2022) REMUX 1080p Latino

    1h 37m 2022

    Descargar Wire Room (2022) REMUX 1080p Latino. Mientras está de servicio en la sala de cables, un agente...

    Director: Matt Eskandari

    Género: Acción

    Actores: Texas Battle

descargar Baywatch (2017) [UNRATED] Full HD 1080p Latino – CMHDD Full 1080p 1080p gratis, Baywatch (2017) [UNRATED] Full HD 1080p Latino – CMHDD Full 1080p mega 1 link, Baywatch (2017) [UNRATED] Full HD 1080p Latino – CMHDD Full 1080p pelicula completa, descargar Baywatch (2017) [UNRATED] Full HD 1080p Latino – CMHDD Full 1080p gratis en mega.

Baywatch (2017) [UNRATED] Full HD 1080p Latino – CMHDD pelicula full hd, Baywatch (2017) [UNRATED] Full HD 1080p Latino – CMHDD mega latino, Baywatch (2017) [UNRATED] Full HD 1080p Latino – CMHDD 4k latino, Baywatch (2017) [UNRATED] Full HD 1080p Latino – CMHDD pelicula completa, Baywatch (2017) [UNRATED] Full HD 1080p Latino – CMHDD descargar gratis, descargar Baywatch (2017) [UNRATED] Full HD 1080p Latino – CMHDD pelicula latino, Baywatch (2017) [UNRATED] Full HD 1080p Latino – CMHDD 1 link mega, Baywatch (2017) [UNRATED] Full HD 1080p Latino – CMHDD 1 link google drive, Baywatch (2017) [UNRATED] Full HD 1080p Latino – CMHDD hd 1080p latino.
Comentarios 0