Batwoman (2021) Temporada 2 AMZN WEB-DL 1080p Latino

152 vistas
1 estrella2 estrellas3 estrellas4 estrellas5 estrellas (2 votos, promedio: 3,00 de 5)
Cargando...

Información de Batwoman (2021) Temporada 2 AMZN WEB-DL 1080p Latino

Datos de la película

  • Calidad: WEBDL
  • Audio: Español Latino AC3 2.0 WEB-DL - Ingles AC3 5.1 WEB-DL
  • Subtitulos: Español Latino SRT- FORZADOS SRT
  • Resolución: 1920x1080
  • Formato: MKV
  • Codec: H.264
  • Encoder: cinemaniahdd
  • Mediainfo: Clic para Mostrar Datos Ver
  • Batwoman T02E01 AMZN WEB-DL 1080p Latino [CNMNHDD].mkv
    Format                      : Matroska
    Format version              : Version 4
    File size                   : 2.33 GiB
    Duration                    : 42 min 14 s
    Overall bit rate            : 7 881 kb/s
    Movie name                  : Batwoman T02E01 - CinemaniaHDD.Net
    Encoded date                : UTC 2021-01-30 03:21:14
    Writing application         : mkvmerge v51.0.0 ('I Wish') 64-bit
    Writing library             : libebml v1.4.0 + libmatroska v1.6.2

    Video
    ID                          : 1
    Format                      : AVC
    Format/Info                 : Advanced Video Codec
    Format profile              : High@L4
    Format settings             : CABAC / 4 Ref Frames
    Format settings, CABAC      : Yes
    Format settings, Reference  : 4 frames
    Codec ID                    : V_MPEG4/ISO/AVC
    Duration                    : 42 min 14 s
    Bit rate mode               : Constant
    Bit rate                    : 6 982 kb/s
    Nominal bit rate            : 10 000 kb/s
    Width                       : 1 920 pixels
    Height                      : 960 pixels
    Display aspect ratio        : 2.000
    Frame rate mode             : Constant
    Frame rate                  : 23.976 (24000/1001) FPS
    Color space                 : YUV
    Chroma subsampling          : 4:2:0
    Bit depth                   : 8 bits
    Scan type                   : Progressive
    Bits/(Pixel*Frame)          : 0.158
    Stream size                 : 2.06 GiB (89%)
    Title                       : CinemaniaHDD
    Default                     : Yes
    Forced                      : No
    Color range                 : Limited
    Color primaries             : BT.709
    Transfer characteristics    : BT.709
    Matrix coefficients         : BT.709

    Audio #1
    ID                          : 2
    Format                      : AC-3
    Format/Info                 : Audio Coding 3
    Commercial name             : Dolby Digital
    Codec ID                    : A_AC3
    Duration                    : 42 min 14 s
    Bit rate mode               : Constant
    Bit rate                    : 256 kb/s
    Channel(s)                  : 2 channels
    Channel layout              : L R
    Sampling rate               : 48.0 kHz
    Frame rate                  : 31.250 FPS (1536 SPF)
    Compression mode            : Lossy
    Stream size                 : 77.3 MiB (3%)
    Title                       : Español latino [CinemaniaHDD]
    Language                    : Spanish
    Service kind                : Complete Main
    Default                     : Yes
    Forced                      : No

    Audio #2
    ID                          : 3
    Format                      : E-AC-3
    Format/Info                 : Enhanced AC-3
    Commercial name             : Dolby Digital Plus
    Codec ID                    : A_EAC3
    Duration                    : 42 min 14 s
    Bit rate mode               : Constant
    Bit rate                    : 640 kb/s
    Channel(s)                  : 6 channels
    Channel layout              : L R C LFE Ls Rs
    Sampling rate               : 48.0 kHz
    Frame rate                  : 31.250 FPS (1536 SPF)
    Compression mode            : Lossy
    Stream size                 : 193 MiB (8%)
    Title                       : Inglés [CinemaniaHDD]
    Language                    : English
    Service kind                : Complete Main
    Default                     : No
    Forced                      : No

    Text #1
    ID                          : 4
    Format                      : UTF-8
    Codec ID                    : S_TEXT/UTF8
    Codec ID/Info               : UTF-8 Plain Text
    Duration                    : 33 min 56 s
    Bit rate                    : 0 b/s
    Count of elements           : 11
    Stream size                 : 244 Bytes (0%)
    Title                       : Forzados [CinemaniaHDD]
    Language                    : Spanish
    Default                     : Yes
    Forced                      : Yes

    Text #2
    ID                          : 5
    Format                      : UTF-8
    Codec ID                    : S_TEXT/UTF8
    Codec ID/Info               : UTF-8 Plain Text
    Duration                    : 41 min 29 s
    Bit rate                    : 59 b/s
    Count of elements           : 606
    Stream size                 : 18.0 KiB (0%)
    Title                       : Español latino [CinemaniaHDD]
    Language                    : Spanish
    Default                     : No
    Forced                      : No

    Text #3
    ID                          : 6
    Format                      : UTF-8
    Codec ID                    : S_TEXT/UTF8
    Codec ID/Info               : UTF-8 Plain Text
    Duration                    : 42 min 7 s
    Bit rate                    : 73 b/s
    Count of elements           : 765
    Stream size                 : 22.6 KiB (0%)
    Title                       : Inglés [CC] [CinemaniaHDD]
    Language                    : English
    Default                     : No
    Forced                      : No

     

  • Peso: 2.33 GiB C/U --- 9 CAPITULOS AGREGADOS

Sinopsis

Después de la misteriosa desaparición de Batman de Ciudad Gótica, la prima de Bruce Wayne, Kate Kane, se pone la capa y vigila las oscuras calles de la ciudad como Batwoman. Armada con entrenamiento militar y gran pasión por la justicia, Kate intenta honrar el legado de su primo. Pero primero debe vencer a sus propios demonios antes de convertirse en la nueva esperanza de Ciuda

9 CAPITULOS AGREGADOS

Ficha técnica

Video trailer de la película

Enlaces de descarga

Rip de Bluray

Descargar Batwoman (2021) Temporada 2 AMZN WEB-DL 1080p Latino




Aportes de DPeliculasHDmega la pass es:dpeliculashdmega.org Aportes de CinemaniaHD la pass es:cinemaniahdd.com

Películas relacionadas

  • La Red De Corrupcion (2019) HD 1080p Latino

    La Red De Corrupcion (2019) HD 1080p Latino

    2019
    La Red De Corrupcion (2019) HD 1080p Latino

    0.0 1h 45m 2019

    Descargar La Red De Corrupcion (2019) HD 1080p Latino. Con los Juegos Olímpicos de 2012 de Londres...

    Director: Ron Scalpello

    Género: Crimen

    Actores: Timothy Spall

  • La Red De Corrupcion (2019) REMUX 1080p Latino

    La Red De Corrupcion (2019) REMUX 1080p Latino

    2019
    La Red De Corrupcion (2019) REMUX 1080p Latino

    0.0 1h 45m 2019

    Descargar La Red De Corrupcion (2019) REMUX 1080p Latino. Con los Juegos Olímpicos de 2012 de Londres...

    Director: Ron Scalpello

    Género: Crimen

    Actores: Timothy Spall

  • Chop Chop (2020) AMZN WEB-DL 1080p Latino

    Chop Chop (2020) AMZN WEB-DL 1080p Latino

    2020
    Chop Chop (2020) AMZN WEB-DL 1080p Latino

    5.0 1h 21m 2020

    Una pareja se involucra con una banda de criminales endurecidos después de sobrevivir a un ataque de...

    Director: Rony Patel

    Género: Crimen

    Actores: Jake Taylor

Batwoman (2021) Temporada 2 AMZN WEB-DL 1080p Latino pelicula full hd, Batwoman (2021) Temporada 2 AMZN WEB-DL 1080p Latino mega latino, Batwoman (2021) Temporada 2 AMZN WEB-DL 1080p Latino 4k latino, Batwoman (2021) Temporada 2 AMZN WEB-DL 1080p Latino pelicula completa, Batwoman (2021) Temporada 2 AMZN WEB-DL 1080p Latino descargar gratis, descargar Batwoman (2021) Temporada 2 AMZN WEB-DL 1080p Latino pelicula latino, Batwoman (2021) Temporada 2 AMZN WEB-DL 1080p Latino 1 link mega, Batwoman (2021) Temporada 2 AMZN WEB-DL 1080p Latino 1 link google drive, Batwoman (2021) Temporada 2 AMZN WEB-DL 1080p Latino hd 1080p latino.
Comentarios 1
  • Jose_E.T. - 06 febrero, 2021

    Gracias por la nueva temporada!