Batwoman (2019) Temporada 1 WEB-DL 1080p Latino

1.918 vistas
1 estrella2 estrellas3 estrellas4 estrellas5 estrellas (6 votos, promedio: 4,33 de 5)
Cargando…

Información de Batwoman (2019) Temporada 1 WEB-DL 1080p Latino

Datos de la película

  • Calidad: WEBDL
  • Audio: Español Latino AC3 2.0 WEB-DL - Ingles AC3 5.1 WEB-DL
  • Subtitulos: Español Latino SRT- FORZADOS SRT
  • Resolución: 1920x960
  • Formato: MKV
  • Codec: H.264
  • Encoder: cinemaniahdd
  • Mediainfo: Clic para Mostrar Datos Ver
  • Batwoman T01E01 AMZN WEB-DL 1080p Latino.mkv
    Format                      : Matroska
    Format version              : Version 4
    File size                   : 2.71 GiB
    Duration                    : 42 min 25 s
    Overall bit rate            : 9 141 kb/s
    Movie name                  : Batwoman T01E01 - CinemaniaHDD.Net
    Encoded date                : UTC 2020-04-18 02:56:09
    Writing application         : mkvmerge v42.0.0 ('Overtime') 64-bit
    Writing library             : libebml v1.3.10 + libmatroska v1.5.2

    Video
    ID                          : 1
    Format                      : AVC
    Format/Info                 : Advanced Video Codec
    Format profile              : High@L4
    Format settings             : CABAC / 4 Ref Frames
    Format settings, CABAC      : Yes
    Format settings, ReFrames   : 4 frames
    Codec ID                    : V_MPEG4/ISO/AVC
    Duration                    : 42 min 25 s
    Bit rate mode               : Constant
    Bit rate                    : 8 243 kb/s
    Nominal bit rate            : 10 000 kb/s
    Width                       : 1 920 pixels
    Height                      : 960 pixels
    Display aspect ratio        : 2.000
    Frame rate mode             : Constant
    Frame rate                  : 23.976 (24000/1001) FPS
    Color space                 : YUV
    Chroma subsampling          : 4:2:0
    Bit depth                   : 8 bits
    Scan type                   : Progressive
    Bits/(Pixel*Frame)          : 0.187
    Stream size                 : 2.44 GiB (90%)
    Title                       : CinemaniaHDD
    Default                     : Yes
    Forced                      : No
    Color range                 : Limited
    Color primaries             : BT.709
    Transfer characteristics    : BT.709
    Matrix coefficients         : BT.709

    Audio #1
    ID                          : 2
    Format                      : AC-3
    Format/Info                 : Audio Coding 3
    Commercial name             : Dolby Digital
    Codec ID                    : A_AC3
    Duration                    : 42 min 25 s
    Bit rate mode               : Constant
    Bit rate                    : 256 kb/s
    Channel(s)                  : 2 channels
    Channel layout              : L R
    Sampling rate               : 48.0 kHz
    Frame rate                  : 31.250 FPS (1536 SPF)
    Bit depth                   : 16 bits
    Compression mode            : Lossy
    Stream size                 : 77.7 MiB (3%)
    Title                       : Español latino [CinemaniaHDD]
    Language                    : Spanish
    Service kind                : Complete Main
    Default                     : Yes
    Forced                      : No

    Audio #2
    ID                          : 3
    Format                      : E-AC-3
    Format/Info                 : Enhanced AC-3
    Commercial name             : Dolby Digital Plus
    Codec ID                    : A_EAC3
    Duration                    : 42 min 25 s
    Bit rate mode               : Constant
    Bit rate                    : 640 kb/s
    Channel(s)                  : 6 channels
    Channel layout              : L R C LFE Ls Rs
    Sampling rate               : 48.0 kHz
    Frame rate                  : 31.250 FPS (1536 SPF)
    Compression mode            : Lossy
    Stream size                 : 194 MiB (7%)
    Title                       : Inglés [CinemaniaHDD]
    Language                    : English
    Service kind                : Complete Main
    Default                     : No
    Forced                      : No

    Text #1
    ID                          : 4
    Format                      : UTF-8
    Codec ID                    : S_TEXT/UTF8
    Codec ID/Info               : UTF-8 Plain Text
    Duration                    : 37 min 17 s
    Bit rate                    : 0 b/s
    Count of elements           : 8
    Stream size                 : 163 Bytes (0%)
    Title                       : Forzados [CinemaniaHDD]
    Language                    : Spanish
    Default                     : Yes
    Forced                      : Yes

    Text #2
    ID                          : 5
    Format                      : UTF-8
    Codec ID                    : S_TEXT/UTF8
    Codec ID/Info               : UTF-8 Plain Text
    Duration                    : 41 min 36 s
    Bit rate                    : 56 b/s
    Count of elements           : 518
    Stream size                 : 17.1 KiB (0%)
    Title                       : Español latino [CinemaniaHDD]
    Language                    : Spanish
    Default                     : No
    Forced                      : No

    Text #3
    ID                          : 6
    Format                      : UTF-8
    Codec ID                    : S_TEXT/UTF8
    Codec ID/Info               : UTF-8 Plain Text
    Duration                    : 42 min 8 s
    Bit rate                    : 63 b/s
    Count of elements           : 699
    Stream size                 : 19.6 KiB (0%)
    Title                       : Inglés [CinemaniaHDD]
    Language                    : English
    Default                     : No
    Forced                      : No

     

  • Peso: 2.71 GiB --- 8 CAPITULOS AGREGADOS

Sinopsis

Batwoman es una ficción que se centra en el personaje de Kate Kane, una mujer con pasión por la justicia social y talento para decir lo que piensa. Esta mujer lesbiana y luchadora salta a las calles de la ciudad de Gotham como Batwoman. Esto ocurre al ser expulsada del West Point por negarse a mentir sobre su sexualidad, Kate es homosexual. Armada de valor y coraje lucha contra el crimen de la ciudad que desea desesperadamente un salvador. Kate (Batwoman) debe superar sus miedos antes de ser el símbolo de la esperanza de Gotham.

Esta serie, escrita por Caroline Dries (Crónicas Vampíricas), está producida por Warner Bros junto con Berlanti Productions para The CW. Esta serie de acción cuenta con Greg Berlanti (Flashpoint), Sarah Schechter (The Flash), Geoff Johns (Escuadrón Suicida) y, la propia Dries como productores.

8 CAPITULOS AGREGADOS

Ficha técnica

Video trailer de la película

Enlaces de descarga

Rip de Bluray

Descargar Batwoman (2019) Temporada 1 WEB-DL 1080p Latino




Aportes de DPeliculasHDmega la pass es:dpeliculashdmega.org Aportes de CinemaniaHD la pass es:cinemaniahdd.com

Películas relacionadas

  • Rápido y Furioso 2 (2003) HD 1080p Latino – CMHDD

    Rápido y Furioso 2 (2003) HD 1080p Latino – CMHDD

    2003
    Rápido y Furioso 2 (2003) HD 1080p Latino – CMHDD

    0.0 1h 45m 2003

    Secuela de "A todo gas" (The Fast and the Furious). Brian O'Connor, un policía caído en desgracia,...

    Director: Terry Leonard

    Género: Acción

    Actores: Zachary L. Mann

  • Rápido y Furioso 3 (2006) Full HD 1080p Latino – CMHDD

    Rápido y Furioso 3 (2006) Full HD 1080p Latino – CMHDD

    2006
    Rápido y Furioso 3 (2006) Full HD 1080p Latino – CMHDD

    0.0 1h 44m 2006

    Shaun Boswell es un chico que no acaba de encajar en ningún grupo. Su única conexión con el mundo...

    Director: Valeria Migliassi Collins

    Género: Acción

    Actores: Zachery Ty Bryan

  • Rápido y Furioso 3 (2006) REMUX 1080p Latino – CMHDD

    Rápido y Furioso 3 (2006) REMUX 1080p Latino – CMHDD

    2006
    Rápido y Furioso 3 (2006) REMUX 1080p Latino – CMHDD

    0.0 1h 44m 2006

    Shaun Boswell es un chico que no acaba de encajar en ningún grupo. Su única conexión con el mundo...

    Director: Valeria Migliassi Collins

    Género: Acción

    Actores: Zachery Ty Bryan

  • Rápido y Furioso 8 (2017) HD 1080p Latino – CMHDD

    Rápido y Furioso 8 (2017) HD 1080p Latino – CMHDD

    2017
    Rápido y Furioso 8 (2017) HD 1080p Latino – CMHDD

    0.0 2h 16m 2017

    La carrera ha comenzado. Dom Toretto y su equipo volverán en esta ocasión con más ganas de guerra...

    Director: Spiro Razatos

    Género: Acción

    Actores: Zachary Vazquez

Comentarios 5
  • King Atlan - 04 junio, 2020

    Esta interesante la serie pero creo que lo que mas resalta es la banda sonora
    muchas gracias por compartirla, gran trabajo.

  • kauka - 26 abril, 2020

    ayuda, sólo puedo ver el primer cap, no me deja descargar los demás.

    • CinemaniaHDD - 26 abril, 2020

      Es una serie recien estrenada en Latinoamerica con el doblaje Español Latino.
      Asi que saldra un capitulo semanalmente

  • Alejandro - 18 abril, 2020

    Gracias, ¡¡Qué bueno que puedan compartir esta serie en Latino.!! Pero se olvidaron de continuar con The Flash y Supergirl

    • CinemaniaHDD - 19 abril, 2020

      CinefiloCool, se encarga de eso, no yo xD