Batwoman (2019) Temporada 1 AMZN WEB-DL 1080p Latino

2.197 vistas
1 estrella2 estrellas3 estrellas4 estrellas5 estrellas (7 votos, promedio: 4,43 de 5)
Cargando...

Información de Batwoman (2019) Temporada 1 AMZN WEB-DL 1080p Latino

Datos de la película

  • Calidad: WEBDL
  • Audio: Español Latino AC3 2.0 WEB-DL - Ingles AC3 5.1 WEB-DL
  • Subtitulos: Español Latino SRT- FORZADOS SRT
  • Resolución: 1920x960
  • Formato: MKV
  • Codec: H.264
  • Encoder: cinemaniahdd
  • Mediainfo: Clic para Mostrar Datos Ver
  • Batwoman T01E20 AMZN WEB-DL 1080p Latino [CNMNHDD].mkv
    Format                      : Matroska
    Format version              : Version 4
    File size                   : 2.39 GiB
    Duration                    : 42 min 23 s
    Overall bit rate            : 8 059 kb/s
    Movie name                  : Batwoman T01E20 - CinemaniaHDD.Net
    Encoded date                : UTC 2020-09-06 02:35:06
    Writing application         : mkvmerge v46.0.0 ('No Deeper Escape') 64-bit
    Writing library             : libebml v1.3.10 + libmatroska v1.5.2

    Video
    ID                          : 1
    Format                      : AVC
    Format/Info                 : Advanced Video Codec
    Format profile              : High@L4
    Format settings             : CABAC / 4 Ref Frames
    Format settings, CABAC      : Yes
    Format settings, Reference  : 4 frames
    Codec ID                    : V_MPEG4/ISO/AVC
    Duration                    : 42 min 22 s
    Bit rate mode               : Constant
    Bit rate                    : 7 160 kb/s
    Nominal bit rate            : 10 000 kb/s
    Width                       : 1 920 pixels
    Height                      : 960 pixels
    Display aspect ratio        : 2.000
    Frame rate mode             : Constant
    Frame rate                  : 23.976 (24000/1001) FPS
    Color space                 : YUV
    Chroma subsampling          : 4:2:0
    Bit depth                   : 8 bits
    Scan type                   : Progressive
    Bits/(Pixel*Frame)          : 0.162
    Stream size                 : 2.12 GiB (89%)
    Title                       : CinemaniaHDD
    Language                    : English
    Default                     : Yes
    Forced                      : No
    Color range                 : Limited
    Color primaries             : BT.709
    Transfer characteristics    : BT.709
    Matrix coefficients         : BT.709

    Audio #1
    ID                          : 2
    Format                      : AC-3
    Format/Info                 : Audio Coding 3
    Commercial name             : Dolby Digital
    Codec ID                    : A_AC3
    Duration                    : 42 min 23 s
    Bit rate mode               : Constant
    Bit rate                    : 256 kb/s
    Channel(s)                  : 2 channels
    Channel layout              : L R
    Sampling rate               : 48.0 kHz
    Frame rate                  : 31.250 FPS (1536 SPF)
    Compression mode            : Lossy
    Stream size                 : 77.6 MiB (3%)
    Title                       : Español latino [CinemaniaHDD]
    Language                    : Spanish
    Service kind                : Complete Main
    Default                     : Yes
    Forced                      : No

    Audio #2
    ID                          : 3
    Format                      : E-AC-3
    Format/Info                 : Enhanced AC-3
    Commercial name             : Dolby Digital Plus
    Codec ID                    : A_EAC3
    Duration                    : 42 min 23 s
    Bit rate mode               : Constant
    Bit rate                    : 640 kb/s
    Channel(s)                  : 6 channels
    Channel layout              : L R C LFE Ls Rs
    Sampling rate               : 48.0 kHz
    Frame rate                  : 31.250 FPS (1536 SPF)
    Compression mode            : Lossy
    Stream size                 : 194 MiB (8%)
    Title                       : Inglés [CinemaniaHDD]
    Language                    : English
    Service kind                : Complete Main
    Default                     : No
    Forced                      : No

    Text #1
    ID                          : 4
    Format                      : UTF-8
    Codec ID                    : S_TEXT/UTF8
    Codec ID/Info               : UTF-8 Plain Text
    Duration                    : 10 min 39 s
    Bit rate                    : 0 b/s
    Count of elements           : 2
    Stream size                 : 71.0 Bytes (0%)
    Title                       : Forzados [CinemaniaHDD]
    Language                    : Spanish
    Default                     : Yes
    Forced                      : Yes

    Text #2
    ID                          : 5
    Format                      : UTF-8
    Codec ID                    : S_TEXT/UTF8
    Codec ID/Info               : UTF-8 Plain Text
    Duration                    : 41 min 42 s
    Bit rate                    : 66 b/s
    Count of elements           : 588
    Stream size                 : 20.5 KiB (0%)
    Title                       : Español latino [CinemaniaHDD]
    Language                    : Spanish
    Default                     : No
    Forced                      : No

    Text #3
    ID                          : 6
    Format                      : UTF-8
    Codec ID                    : S_TEXT/UTF8
    Codec ID/Info               : UTF-8 Plain Text
    Duration                    : 42 min 15 s
    Bit rate                    : 74 b/s
    Count of elements           : 783
    Stream size                 : 23.2 KiB (0%)
    Title                       : Inglés [CinemaniaHDD]
    Language                    : English
    Default                     : No
    Forced                      : No

     

  • Peso: 2.39 GiB --- 20 CAPITULOS AGREGADOS

Sinopsis

Batwoman es una ficción que se centra en el personaje de Kate Kane, una mujer con pasión por la justicia social y talento para decir lo que piensa. Esta mujer lesbiana y luchadora salta a las calles de la ciudad de Gotham como Batwoman. Esto ocurre al ser expulsada del West Point por negarse a mentir sobre su sexualidad, Kate es homosexual. Armada de valor y coraje lucha contra el crimen de la ciudad que desea desesperadamente un salvador. Kate (Batwoman) debe superar sus miedos antes de ser el símbolo de la esperanza de Gotham.

Esta serie, escrita por Caroline Dries (Crónicas Vampíricas), está producida por Warner Bros junto con Berlanti Productions para The CW. Esta serie de acción cuenta con Greg Berlanti (Flashpoint), Sarah Schechter (The Flash), Geoff Johns (Escuadrón Suicida) y, la propia Dries como productores.

20 CAPITULOS AGREGADOS

FINAL DE TEMPORADA

Ficha técnica

Video trailer de la película

Enlaces de descarga

Rip de Bluray

Descargar Batwoman (2019) Temporada 1 AMZN WEB-DL 1080p Latino




Aportes de DPeliculasHDmega la pass es:dpeliculashdmega.org Aportes de CinemaniaHD la pass es:cinemaniahdd.com

Películas relacionadas

Comentarios 5
  • King Atlan - 04 junio, 2020

    Esta interesante la serie pero creo que lo que mas resalta es la banda sonora
    muchas gracias por compartirla, gran trabajo.

  • kauka - 26 abril, 2020

    ayuda, sólo puedo ver el primer cap, no me deja descargar los demás.

    • CinemaniaHDD - 26 abril, 2020

      Es una serie recien estrenada en Latinoamerica con el doblaje Español Latino.
      Asi que saldra un capitulo semanalmente

  • Alejandro - 18 abril, 2020

    Gracias, ¡¡Qué bueno que puedan compartir esta serie en Latino.!! Pero se olvidaron de continuar con The Flash y Supergirl

    • CinemaniaHDD - 19 abril, 2020

      CinefiloCool, se encarga de eso, no yo xD