×

¿Problemas para descargar con Mozilla, EDGE? Deshabilita la opción "Abrir vinculos en una pestaña nueva" tal como lo muestra ésta imagen.

Battleship Batalla Naval (2012) Full HD 1080p Latino – CMHDD

630 vistas

Información de Battleship Batalla Naval (2012) Full HD 1080p Latino – CMHDD

Datos de la película

  • Calidad: Full 1080p
  • Audio: Español Latino DTS 5.1 BLURAY - Ingles DTS 5.1 BLURAY
  • Subtitulos: Español Latino SRT- FORZADOS SRT
  • Resolución: 1920x1080p
  • Formato: MKV
  • Codec: H.264
  • Encoder: Dracarys
  • Mediainfo: Clic para Mostrar Datos Ver
  • Format                      : Matroska
    Format version              : Version 4
    File size                   : 12.6 GiB
    Duration                    : 2 h 11 min
    Overall bit rate mode       : Variable
    Overall bit rate            : 13.7 Mb/s
    Movie name                  : Battleship Batalla Naval (2012) Full HD 1080p Latino - CMHDD
    Encoded date                : UTC 2020-06-07 01:01:53
    Writing application         : mkvmerge v46.0.0 ('No Deeper Escape') 64-bit
    Writing library             : libebml v1.3.10 + libmatroska v1.5.2

    Video
    ID                          : 1
    Format                      : AVC
    Format/Info                 : Advanced Video Codec
    Format profile              : High@L4.1
    Format settings             : CABAC / 4 Ref Frames
    Format settings, CABAC      : Yes
    Format settings, Reference  : 4 frames
    Codec ID                    : V_MPEG4/ISO/AVC
    Duration                    : 2 h 11 min
    Bit rate                    : 8 770 kb/s
    Width                       : 1 920 pixels
    Height                      : 1 080 pixels
    Display aspect ratio        : 16:9
    Frame rate mode             : Constant
    Frame rate                  : 23.976 (24000/1001) FPS
    Color space                 : YUV
    Chroma subsampling          : 4:2:0
    Bit depth                   : 8 bits
    Scan type                   : Progressive
    Bits/(Pixel*Frame)          : 0.176
    Stream size                 : 8.05 GiB (64%)
    Writing library             : x264 core 157 r2935 545de2f
    Encoding settings           : cabac=1 / ref=4 / deblock=1:0:0 / analyse=0x3:0x133 / me=tesa / subme=11 / psy=1 / psy_rd=1.00:0.00 / mixed_ref=1 / me_range=24 / chroma_me=1 / trellis=2 / 8x8dct=1 / cqm=0 / deadzone=21,11 / fast_pskip=0 / chroma_qp_offset=-2 / threads=24 / lookahead_threads=6 / sliced_threads=0 / nr=0 / decimate=1 / interlaced=0 / bluray_compat=0 / constrained_intra=0 / bframes=16 / b_pyramid=2 / b_adapt=2 / b_bias=0 / direct=3 / weightb=1 / open_gop=0 / weightp=2 / keyint=240 / keyint_min=24 / scenecut=40 / intra_refresh=0 / rc_lookahead=60 / rc=crf / mbtree=1 / crf=20.0 / qcomp=0.60 / qpmin=0 / qpmax=69 / qpstep=4 / vbv_maxrate=62500 / vbv_bufsize=78125 / crf_max=0.0 / nal_hrd=none / filler=0 / ip_ratio=1.40 / aq=1:1.00
    Default                     : Yes
    Forced                      : No
    Color range                 : Limited
    Color primaries             : BT.709
    Transfer characteristics    : BT.709
    Matrix coefficients         : BT.709

    Audio #1
    ID                          : 2
    Format                      : DTS
    Format/Info                 : Digital Theater Systems
    Codec ID                    : A_DTS
    Duration                    : 2 h 11 min
    Bit rate mode               : Constant
    Bit rate                    : 768 kb/s
    Channel(s)                  : 6 channels
    Channel layout              : C L R Ls Rs LFE
    Sampling rate               : 48.0 kHz
    Frame rate                  : 93.750 FPS (512 SPF)
    Bit depth                   : 24 bits
    Compression mode            : Lossy
    Stream size                 : 722 MiB (6%)
    Language                    : Spanish
    Default                     : Yes
    Forced                      : No

    Audio #2
    ID                          : 3
    Format                      : DTS XLL
    Format/Info                 : Digital Theater Systems
    Commercial name             : DTS-HD Master Audio
    Codec ID                    : A_DTS
    Duration                    : 2 h 11 min
    Bit rate mode               : Variable
    Bit rate                    : 4 170 kb/s
    Channel(s)                  : 6 channels
    Channel layout              : C L R Ls Rs LFE
    Sampling rate               : 48.0 kHz
    Frame rate                  : 93.750 FPS (512 SPF)
    Bit depth                   : 24 bits
    Compression mode            : Lossless
    Stream size                 : 3.83 GiB (30%)
    Language                    : English
    Default                     : No
    Forced                      : No

    Text #1
    ID                          : 4
    Format                      : UTF-8
    Codec ID                    : S_TEXT/UTF8
    Codec ID/Info               : UTF-8 Plain Text
    Duration                    : 2 h 8 min
    Bit rate                    : 0 b/s
    Count of elements           : 22
    Stream size                 : 818 Bytes (0%)
    Title                       : Forzados
    Language                    : Spanish
    Default                     : Yes
    Forced                      : Yes

    Text #2
    ID                          : 5
    Format                      : UTF-8
    Codec ID                    : S_TEXT/UTF8
    Codec ID/Info               : UTF-8 Plain Text
    Duration                    : 2 h 9 min
    Bit rate                    : 46 b/s
    Count of elements           : 1353
    Stream size                 : 44.3 KiB (0%)
    Language                    : Spanish
    Default                     : No
    Forced                      : No

    Text #3
    ID                          : 6
    Format                      : PGS
    Muxing mode                 : zlib
    Codec ID                    : S_HDMV/PGS
    Codec ID/Info               : Picture based subtitle format used on BDs/HD-DVDs
    Duration                    : 2 h 10 min
    Bit rate                    : 29.6 kb/s
    Count of elements           : 2713
    Stream size                 : 27.6 MiB (0%)
    Language                    : Spanish
    Default                     : No
    Forced                      : No

    Text #4
    ID                          : 7
    Format                      : PGS
    Muxing mode                 : zlib
    Codec ID                    : S_HDMV/PGS
    Codec ID/Info               : Picture based subtitle format used on BDs/HD-DVDs
    Duration                    : 2 h 9 min
    Bit rate                    : 651 b/s
    Count of elements           : 110
    Stream size                 : 620 KiB (0%)
    Title                       : Forzados
    Language                    : Spanish
    Default                     : No
    Forced                      : No

    Menu
    00:00:00.000                : :Chapter 1
    00:09:24.147                : :Chapter 2
    00:15:04.153                : :Chapter 3
    00:23:08.721                : :Chapter 4
    00:29:44.116                : :Chapter 5
    00:36:26.893                : :Chapter 6
    00:42:01.352                : :Chapter 7
    00:49:09.738                : :Chapter 8
    00:56:08.448                : :Chapter 9
    01:00:02.349                : :Chapter 10
    01:09:50.687                : :Chapter 11
    01:15:26.897                : :Chapter 12
    01:20:57.144                : :Chapter 13
    01:29:47.632                : :Chapter 14
    01:37:14.620                : :Chapter 15
    01:43:32.456                : :Chapter 16
    01:49:38.822                : :Chapter 17
    01:56:20.932                : :Chapter 18
    02:00:41.651                : :Chapter 19
    02:09:34.267                : :Chapter 20

  • Peso: 12.6 GiB

Sinopsis

“Battleship” es la libre adaptación al cine del popular juego de mesa de Hasbro conocido como “Hundir la flota” o ”Batalla naval”. La curiosa variante que plantea esta versión es que la batalla será entre la U.S. Navy y… ¡una flota alienígena! La historia nos propone una épica aventura de acción que transcurre en el mar, el cielo y la tierra, y en la que nuestro planeta lucha por sobrevivir contra una fuerza muy superior. La película está protagonizada por Taylor Kitsch en el papel del teniente Hopper, un oficial de la Marina destinado al John Paul Jones; Brooklyn Decker es Sam Shane, una fisioterapeuta de la Marina y novia de Hopper; Alexander Skarsgård es Stone, el hermano mayor de Hopper y comandante del Samson; Rihanna es la suboficial Raikes, especialista en armas del John Paul Jones; y Liam Neeson es el almirante Shane, el oficial superior de Hopper y Stone (y padre de Sam).

Ficha técnica

Video trailer de la película

Enlaces de descarga

Rip de Bluray

Descargar Battleship Batalla Naval (2012) Full HD 1080p Latino – CMHDD




Aportes de DPeliculasHDmega la pass es:dpeliculashdmega.org Aportes de CinemaniaHD la pass es:cinemaniahdd.com

Películas relacionadas

  • Jaula Mental (2022) HD 1080p Latino

    Jaula Mental (2022) HD 1080p Latino

    2022
    Jaula Mental (2022) HD 1080p Latino

    1h 47m 2022

    Descargar Jaula Mental (2022) HD 1080p Latino. Cuando un asesino que imita otros crímenes comienza a...

    Director: Mauro Borrelli

    Género: Crimen

    Actores: Victoria Fox

  • Jaula Mental (2022) PLACEBO Full HD 1080p Latino

    Jaula Mental (2022) PLACEBO Full HD 1080p Latino

    2022
    Jaula Mental (2022) PLACEBO Full HD 1080p Latino

    1h 47m 2022

    Descargar Jaula Mental (2022) PLACEBO Full HD 1080p Latino. Cuando un asesino que imita otros crímenes...

    Director: Mauro Borrelli

    Género: Crimen

    Actores: Victoria Fox

  • Jaula Mental (2022) REMUX 1080p Latino

    Jaula Mental (2022) REMUX 1080p Latino

    2022
    Jaula Mental (2022) REMUX 1080p Latino

    1h 47m 2022

    Descargar Jaula Mental (2022) REMUX 1080p Latino. Cuando un asesino que imita otros crímenes comienza...

    Director: Mauro Borrelli

    Género: Crimen

    Actores: Victoria Fox

  • Transfusion (2023) HD 1080p Latino

    Transfusion (2023) HD 1080p Latino

    2023
    Transfusion (2023) HD 1080p Latino

    1h 45m 2023

    Descargar Transfusion (2023) HD 1080p Latino. Un antiguo agente de las Fuerzas Especiales se ve empujado...

    Director: Matt Nable

    Género: Crimen

    Actores: Trystan Go

  • Transfusion (2023) PLACEBO Full HD 1080p Latino

    Transfusion (2023) PLACEBO Full HD 1080p Latino

    2023
    Transfusion (2023) PLACEBO Full HD 1080p Latino

    1h 45m 2023

    Descargar Transfusion (2023) PLACEBO Full HD 1080p Latino. Un antiguo agente de las Fuerzas Especiales...

    Director: Matt Nable

    Género: Crimen

    Actores: Trystan Go

descargar Battleship Batalla Naval (2012) Full HD 1080p Latino – CMHDD Full 1080p 1080p gratis, Battleship Batalla Naval (2012) Full HD 1080p Latino – CMHDD Full 1080p mega 1 link, Battleship Batalla Naval (2012) Full HD 1080p Latino – CMHDD Full 1080p pelicula completa, descargar Battleship Batalla Naval (2012) Full HD 1080p Latino – CMHDD Full 1080p gratis en mega.

Battleship Batalla Naval (2012) Full HD 1080p Latino – CMHDD pelicula full hd, Battleship Batalla Naval (2012) Full HD 1080p Latino – CMHDD mega latino, Battleship Batalla Naval (2012) Full HD 1080p Latino – CMHDD 4k latino, Battleship Batalla Naval (2012) Full HD 1080p Latino – CMHDD pelicula completa, Battleship Batalla Naval (2012) Full HD 1080p Latino – CMHDD descargar gratis, descargar Battleship Batalla Naval (2012) Full HD 1080p Latino – CMHDD pelicula latino, Battleship Batalla Naval (2012) Full HD 1080p Latino – CMHDD 1 link mega, Battleship Batalla Naval (2012) Full HD 1080p Latino – CMHDD 1 link google drive, Battleship Batalla Naval (2012) Full HD 1080p Latino – CMHDD hd 1080p latino.
Comentarios 1
  • ocpgaiden - 18 junio, 2020

    Gracias por batalla naval full hd, saludos