×

¿Problemas para descargar con Mozilla, EDGE? Deshabilita la opción "Abrir vinculos en una pestaña nueva" tal como lo muestra ésta imagen.

Invasión del Mundo: Batalla Los Ángeles (2011) REMUX 1080p Latino

490 vistas

Información de Invasión del Mundo: Batalla Los Ángeles (2011) REMUX 1080p Latino

Datos de la película

  • Calidad: Full 1080p
  • Audio: Español Latino AC3 5.1 BLURAY - Ingles DTS 5.1 BLURAY
  • Subtitulos: Español Latino SRT- FORZADOS SRT
  • Resolución: 1920x1080p
  • Formato: MKV
  • Codec: H.264
  • Encoder: CinefiloCool
  • Mediainfo: Clic para Mostrar Datos Ver
  • Batalla Los Angeles (2011) REMUX 1080p Latino-CMHDD.mkv
    Format                      : Matroska
    Format version              : Version 4
    File size                   : 20.5 GiB
    Duration                    : 1 h 56 min
    Overall bit rate mode       : Variable
    Overall bit rate            : 25.3 Mb/s
    Movie name                  : Battle - Los Angeles (2011) CinemaniaHDD.Net
    Encoded date                : UTC 2020-08-26 05:38:54
    Writing application         : mkvmerge v46.0.0 ('No Deeper Escape') 64-bit
    Writing library             : libebml v1.3.10 + libmatroska v1.5.2
    Attachments                 : CINEMANIAHD.png

    Video
    ID                          : 1
    Format                      : AVC
    Format/Info                 : Advanced Video Codec
    Format profile              : High@L4.1
    Format settings             : CABAC / 2 Ref Frames
    Format settings, CABAC      : Yes
    Format settings, Reference  : 2 frames
    Codec ID                    : V_MPEG4/ISO/AVC
    Duration                    : 1 h 56 min
    Bit rate mode               : Variable
    Bit rate                    : 22.2 Mb/s
    Width                       : 1 920 pixels
    Height                      : 1 080 pixels
    Display aspect ratio        : 16:9
    Frame rate mode             : Constant
    Frame rate                  : 23.976 (24000/1001) FPS
    Color space                 : YUV
    Chroma subsampling          : 4:2:0
    Bit depth                   : 8 bits
    Scan type                   : Progressive
    Bits/(Pixel*Frame)          : 0.446
    Stream size                 : 18.0 GiB (88%)
    Title                       : REMUX 1080p [CinemaniaHDD]
    Language                    : English
    Default                     : Yes
    Forced                      : No

    Audio #1
    ID                          : 2
    Format                      : AC-3
    Format/Info                 : Audio Coding 3
    Commercial name             : Dolby Digital
    Codec ID                    : A_AC3
    Duration                    : 1 h 56 min
    Bit rate mode               : Constant
    Bit rate                    : 640 kb/s
    Channel(s)                  : 6 channels
    Channel layout              : L R C LFE Ls Rs
    Sampling rate               : 48.0 kHz
    Frame rate                  : 31.250 FPS (1536 SPF)
    Compression mode            : Lossy
    Stream size                 : 533 MiB (3%)
    Title                       : Español Latino [CinemaniaHDD]
    Language                    : Spanish
    Service kind                : Complete Main
    Default                     : Yes
    Forced                      : No

    Audio #2
    ID                          : 3
    Format                      : DTS XLL
    Format/Info                 : Digital Theater Systems
    Commercial name             : DTS-HD Master Audio
    Codec ID                    : A_DTS
    Duration                    : 1 h 56 min
    Bit rate mode               : Variable
    Bit rate                    : 2 474 kb/s
    Channel(s)                  : 6 channels
    Channel layout              : C L R Ls Rs LFE
    Sampling rate               : 48.0 kHz
    Frame rate                  : 93.750 FPS (512 SPF)
    Bit depth                   : 16 bits
    Compression mode            : Lossless
    Stream size                 : 2.01 GiB (10%)
    Title                       : Ingles [CinemaniaHDD]
    Language                    : English
    Default                     : No
    Forced                      : No

    Text #1
    ID                          : 4
    Format                      : UTF-8
    Codec ID                    : S_TEXT/UTF8
    Codec ID/Info               : UTF-8 Plain Text
    Duration                    : 1 h 48 min
    Bit rate                    : 1 b/s
    Count of elements           : 31
    Stream size                 : 943 Bytes (0%)
    Title                       : Forzados-SRT [CinemaniaHDD]
    Language                    : Spanish
    Default                     : Yes
    Forced                      : No

    Text #2
    ID                          : 5
    Format                      : UTF-8
    Codec ID                    : S_TEXT/UTF8
    Codec ID/Info               : UTF-8 Plain Text
    Duration                    : 1 h 55 min
    Bit rate                    : 57 b/s
    Count of elements           : 1429
    Stream size                 : 48.5 KiB (0%)
    Title                       : Español-SRT [CinemaniaHDD]
    Language                    : Spanish
    Default                     : No
    Forced                      : No

    Text #3
    ID                          : 6
    Format                      : UTF-8
    Codec ID                    : S_TEXT/UTF8
    Codec ID/Info               : UTF-8 Plain Text
    Duration                    : 1 h 50 min
    Bit rate                    : 63 b/s
    Count of elements           : 1419
    Stream size                 : 51.7 KiB (0%)
    Title                       : Ingles-SRT [CinemaniaHDD]
    Language                    : English
    Default                     : No
    Forced                      : No

    Menu
    00:00:00.000                : :Chapter 1
    00:11:49.250                : :Chapter 2
    00:18:21.684                : :Chapter 3
    00:22:24.510                : :Chapter 4
    00:27:41.410                : :Chapter 5
    00:35:19.659                : :Chapter 6
    00:41:44.752                : :Chapter 7
    00:47:57.917                : :Chapter 8
    00:55:20.192                : :Chapter 9
    01:02:02.177                : :Chapter 10
    01:12:26.509                : :Chapter 11
    01:17:50.958                : :Chapter 12
    01:22:57.764                : :Chapter 13
    01:30:23.418                : :Chapter 14
    01:37:53.951                : :Chapter 15
    01:47:12.009                : :Chapter 16

  • Peso: 20.5 GiB

Sinopsis

Descargar Invasión del Mundo: Batalla Los Ángeles (2011) REMUX 1080p Latino. Durante años ha habido casos documentados de avistamientos de OVNIS en todo el mundo. Pero en 2011, lo que hasta ese momento eran simples avistamientos resulta una terrible realidad cuando la Tierra es atacada por fuerzas desconocidas. Mientras todos son testigos de cómo caen las grandes ciudades del mundo, Los Ángeles se convierte en el último bastión de la humanidad en una batalla que nadie esperaba. Un sargento de la Marina (Aaron Eckhart) y su división son los que tendrán que definir los límites frente a un enemigo como jamás se habían encontrado.

Ficha técnica

Video trailer de la película

Enlaces de descarga

Rip de Bluray

Descargar Invasión del Mundo: Batalla Los Ángeles (2011) REMUX 1080p Latino




Aportes de DPeliculasHDmega la pass es:dpeliculashdmega.org Aportes de CinemaniaHD la pass es:cinemaniahdd.com
Guardado en : Acción , Ciencia ficción , Remux

Películas relacionadas

  • Jaula Mental (2022) REMUX 1080p Latino

    Jaula Mental (2022) REMUX 1080p Latino

    2022
    Jaula Mental (2022) REMUX 1080p Latino

    1h 47m 2022

    Descargar Jaula Mental (2022) REMUX 1080p Latino. Cuando un asesino que imita otros crímenes comienza...

    Director: Mauro Borrelli

    Género: Crimen

    Actores: Victoria Fox

  • Transfusion (2023) REMUX 1080p Latino

    Transfusion (2023) REMUX 1080p Latino

    2023
    Transfusion (2023) REMUX 1080p Latino

    1h 45m 2023

    Descargar Transfusion (2023) REMUX 1080p Latino. Un antiguo agente de las Fuerzas Especiales se ve empujado...

    Director: Matt Nable

    Género: Crimen

    Actores: Trystan Go

  • Gladiador (2000) EXTENDED CUT 1080p Latino

    Gladiador (2000) EXTENDED CUT 1080p Latino

    2000
    Gladiador (2000) EXTENDED CUT 1080p Latino

    2h 35m 2000

    Gladiador (2000) EXTENDED CUT 1080p Latino. Máximo, General de las Legiones Romanas, es querido por...

    Director: Ridley Scott

    Género: Acción

    Actores: Tony Curran

  • Gladiador (2000) EXTENDED CUT Full HD 1080p Latino

    Gladiador (2000) EXTENDED CUT Full HD 1080p Latino

    2000
    Gladiador (2000) EXTENDED CUT Full HD 1080p Latino

    2h 35m 2000

    Descargar Gladiador (2000) [Extended Cut] Full HD 1080p Latino. Máximo, General de las Legiones Romanas,...

    Director: Ridley Scott

    Género: Acción

    Actores: Tony Curran

descargar Invasión del Mundo: Batalla Los Ángeles (2011) REMUX 1080p Latino Full 1080p 1080p gratis, Invasión del Mundo: Batalla Los Ángeles (2011) REMUX 1080p Latino Full 1080p mega 1 link, Invasión del Mundo: Batalla Los Ángeles (2011) REMUX 1080p Latino Full 1080p pelicula completa, descargar Invasión del Mundo: Batalla Los Ángeles (2011) REMUX 1080p Latino Full 1080p gratis en mega.

Invasión del Mundo: Batalla Los Ángeles (2011) REMUX 1080p Latino pelicula full hd, Invasión del Mundo: Batalla Los Ángeles (2011) REMUX 1080p Latino mega latino, Invasión del Mundo: Batalla Los Ángeles (2011) REMUX 1080p Latino 4k latino, Invasión del Mundo: Batalla Los Ángeles (2011) REMUX 1080p Latino pelicula completa, Invasión del Mundo: Batalla Los Ángeles (2011) REMUX 1080p Latino descargar gratis, descargar Invasión del Mundo: Batalla Los Ángeles (2011) REMUX 1080p Latino pelicula latino, Invasión del Mundo: Batalla Los Ángeles (2011) REMUX 1080p Latino 1 link mega, Invasión del Mundo: Batalla Los Ángeles (2011) REMUX 1080p Latino 1 link google drive, Invasión del Mundo: Batalla Los Ángeles (2011) REMUX 1080p Latino hd 1080p latino.
Comentarios 1
  • ocpgaiden - 28 agosto, 2020

    Gracias por el Remux, saludos