×

¿Problemas para descargar con Mozilla, EDGE? Deshabilita la opción "Abrir vinculos en una pestaña nueva" tal como lo muestra ésta imagen.

Invasión del Mundo: Batalla Los Ángeles (2011) OPEN MATTE Web-DL 1080p Latino

558 vistas

Información de Invasión del Mundo: Batalla Los Ángeles (2011) OPEN MATTE Web-DL 1080p Latino

Datos de la película

  • Calidad: WEBDL
  • Audio: Se especifica abajo de la Sinopsis
  • Subtitulos: Español Latino SRT - Ingles SRT
  • Resolución: 1920x1080p
  • Formato: MKV
  • Codec: H.264
  • Encoder: CinefiloCool
  • Mediainfo: Clic para Mostrar Datos Ver
  • Batalla Los Angeles (2011) OPEN MATTE Web-DL 1080p Latino-CMHDD.mkv
    Format                      : Matroska
    Format version              : Version 4
    File size                   : 9.63 GiB
    Duration                    : 1 h 56 min
    Overall bit rate            : 11.8 Mb/s
    Movie name                  : Battle - Los Angeles (2011) CinemaniaHDD.Net
    Encoded date                : UTC 2020-08-26 05:56:18
    Writing application         : mkvmerge v46.0.0 ('No Deeper Escape') 64-bit
    Writing library             : libebml v1.3.10 + libmatroska v1.5.2
    Attachments                 : CINEMANIAHD.png

    Video
    ID                          : 1
    Format                      : AVC
    Format/Info                 : Advanced Video Codec
    Format profile              : High@L4
    Format settings             : CABAC / 4 Ref Frames
    Format settings, CABAC      : Yes
    Format settings, Reference  : 4 frames
    Codec ID                    : V_MPEG4/ISO/AVC
    Duration                    : 1 h 56 min
    Bit rate                    : 10.6 Mb/s
    Width                       : 1 920 pixels
    Height                      : 1 080 pixels
    Display aspect ratio        : 16:9
    Frame rate mode             : Constant
    Frame rate                  : 23.976 (24000/1001) FPS
    Color space                 : YUV
    Chroma subsampling          : 4:2:0
    Bit depth                   : 8 bits
    Scan type                   : Progressive
    Bits/(Pixel*Frame)          : 0.212
    Stream size                 : 8.59 GiB (89%)
    Title                       : Web Open Matte [CinemaniaHDD]
    Default                     : Yes
    Forced                      : Yes
    Color range                 : Limited
    Color primaries             : BT.709
    Transfer characteristics    : BT.709
    Matrix coefficients         : BT.709

    Audio #1
    ID                          : 2
    Format                      : AC-3
    Format/Info                 : Audio Coding 3
    Commercial name             : Dolby Digital
    Codec ID                    : A_AC3
    Duration                    : 1 h 56 min
    Bit rate mode               : Constant
    Bit rate                    : 640 kb/s
    Channel(s)                  : 6 channels
    Channel layout              : L R C LFE Ls Rs
    Sampling rate               : 48.0 kHz
    Frame rate                  : 31.250 FPS (1536 SPF)
    Compression mode            : Lossy
    Delay relative to video     : 11 s 172 ms
    Stream size                 : 533 MiB (5%)
    Title                       : Español Latino [CinemaniaHDD]
    Language                    : Spanish
    Service kind                : Complete Main
    Default                     : Yes
    Forced                      : Yes

    Audio #2
    ID                          : 3
    Format                      : E-AC-3
    Format/Info                 : Enhanced AC-3
    Commercial name             : Dolby Digital Plus
    Codec ID                    : A_EAC3
    Duration                    : 1 h 56 min
    Bit rate mode               : Constant
    Bit rate                    : 640 kb/s
    Channel(s)                  : 6 channels
    Channel layout              : L R C LFE Ls Rs
    Sampling rate               : 48.0 kHz
    Frame rate                  : 31.250 FPS (1536 SPF)
    Compression mode            : Lossy
    Stream size                 : 533 MiB (5%)
    Title                       : Ingles [CinemaniaHDD]
    Language                    : English
    Service kind                : Complete Main
    Default                     : No
    Forced                      : No

    Text #1
    ID                          : 4
    Format                      : UTF-8
    Codec ID                    : S_TEXT/UTF8
    Codec ID/Info               : UTF-8 Plain Text
    Duration                    : 1 h 48 min
    Bit rate                    : 1 b/s
    Count of elements           : 31
    Stream size                 : 943 Bytes (0%)
    Title                       : Forzados-SRT [CinemaniaHDD]
    Language                    : Spanish
    Default                     : Yes
    Forced                      : Yes

    Text #2
    ID                          : 5
    Format                      : UTF-8
    Codec ID                    : S_TEXT/UTF8
    Codec ID/Info               : UTF-8 Plain Text
    Duration                    : 1 h 55 min
    Bit rate                    : 57 b/s
    Count of elements           : 1429
    Stream size                 : 48.5 KiB (0%)
    Title                       : Español-SRT [CinemaniaHDD]
    Language                    : Spanish
    Default                     : No
    Forced                      : No

    Text #3
    ID                          : 6
    Format                      : UTF-8
    Codec ID                    : S_TEXT/UTF8
    Codec ID/Info               : UTF-8 Plain Text
    Duration                    : 1 h 51 min
    Bit rate                    : 65 b/s
    Count of elements           : 1683
    Stream size                 : 53.7 KiB (0%)
    Title                       : Ingles-SRT [CinemaniaHDD]
    Language                    : English
    Default                     : No
    Forced                      : No

    Menu
    00:00:00.000                : en:Studio Logos
    00:00:44.000                : en:The world is under attack, Title Sequence
    00:02:24.000                : en:Michael works out
    00:04:08.000                : en:John talks to Michael about retiring
    00:06:09.000                : en:Nick and Kevin sample flowers
    00:07:54.000                : en:Peter sees a psychiatrist and Jason visits his brothers grave
    00:09:46.000                : en:Soldiers drink and hit golf balls
    00:11:12.000                : en:Martinez says goodbye to his wife
    00:12:00.000                : en:Michael is brought back to duty
    00:14:30.000                : en:The troops talk about Michael's past
    00:17:17.000                : en:The troops watch news coverage of the attacks
    00:18:33.000                : en:The troops head out to battle
    00:22:35.000                : en:Ritchie gives the mission briefing
    00:25:47.000                : en:The platoon is blinded by debris
    00:28:05.000                : en:The platoon is attacked and boxed in
    00:30:53.000                : en:The platoon takes cover inside a house
    00:32:12.000                : en:Shaun attempts to reunite with the platoon
    00:35:31.000                : en:Elena and Richard join William's platoon
    00:38:26.000                : en:The platoon reaches the police station and searches for surviving civilians
    00:41:56.000                : en:William commands troops to find a way out
    00:45:08.000                : en:Peter looks for way out
    00:48:09.000                : en:An injured alien is experimented on while Nick and Kevin secure the bus
    00:52:18.000                : en:Michael figures out the aliens weakness
    00:54:49.000                : en:The platoon is ambushed by alien spaceships
    00:58:44.000                : en:The platoon celebrates Michael's heroics
    01:02:16.000                : en:The platoon finds the freeway route destroyed
    01:06:11.000                : en:Alien tank attacks as troops lower the civilians to saftey
    01:09:44.000                : en:William asks to be left and gives Michael a note for his wife
    01:12:37.000                : en:Michael patches up Joe
    01:15:14.000                : en:Michael and Elena determine their target
    01:18:02.000                : en:The platoon makes it to a destroyed base
    01:20:41.000                : en:Michael promises to protect Hector
    01:23:51.000                : en:Michael stands up to Jason regarding his past
    01:27:17.000                : en:The platoon makes their way to extraction point
    01:30:20.000                : en:The platoon and civilians are extracted
    01:34:41.000                : en:Troops prepare to take down the power source
    01:35:56.000                : en:Troops make their way to the alien power source
    01:38:08.000                : en:The troops split up to request an air strike
    01:39:54.000                : en:Air support is requested and the platoon fights to survive
    01:43:23.000                : en:The platoon assails the evacuating power source
    01:47:24.000                : en:Aliens retreat and while the troops head out to fight again
    01:51:18.000                : en:End Credits

  • Peso: 9.63 GiB

Sinopsis

Descargar Invasión del Mundo: Batalla Los Ángeles (2011) OPEN MATTE Web-DL 1080p Latino. Durante años ha habido casos documentados de avistamientos de OVNIS en todo el mundo. Pero en 2011, lo que hasta ese momento eran simples avistamientos resulta una terrible realidad cuando la Tierra es atacada por fuerzas desconocidas. Mientras todos son testigos de cómo caen las grandes ciudades del mundo, Los Ángeles se convierte en el último bastión de la humanidad en una batalla que nadie esperaba. Un sargento de la Marina (Aaron Eckhart) y su división son los que tendrán que definir los límites frente a un enemigo como jamás se habían encontrado.

Audio Español Latino AC3 5.1 Bluray – Ingles EAC3 5.1 Web-DL

Ficha técnica

Video trailer de la película

Enlaces de descarga

Rip de Bluray

Descargar Invasión del Mundo: Batalla Los Ángeles (2011) OPEN MATTE Web-DL 1080p Latino




Aportes de DPeliculasHDmega la pass es:dpeliculashdmega.org Aportes de CinemaniaHD la pass es:cinemaniahdd.com

Películas relacionadas

descargar Invasión del Mundo: Batalla Los Ángeles (2011) OPEN MATTE Web-DL 1080p Latino WEBDL 1080p gratis, Invasión del Mundo: Batalla Los Ángeles (2011) OPEN MATTE Web-DL 1080p Latino WEBDL mega 1 link, Invasión del Mundo: Batalla Los Ángeles (2011) OPEN MATTE Web-DL 1080p Latino WEBDL pelicula completa, descargar Invasión del Mundo: Batalla Los Ángeles (2011) OPEN MATTE Web-DL 1080p Latino WEBDL gratis en mega.

Invasión del Mundo: Batalla Los Ángeles (2011) OPEN MATTE Web-DL 1080p Latino pelicula full hd, Invasión del Mundo: Batalla Los Ángeles (2011) OPEN MATTE Web-DL 1080p Latino mega latino, Invasión del Mundo: Batalla Los Ángeles (2011) OPEN MATTE Web-DL 1080p Latino 4k latino, Invasión del Mundo: Batalla Los Ángeles (2011) OPEN MATTE Web-DL 1080p Latino pelicula completa, Invasión del Mundo: Batalla Los Ángeles (2011) OPEN MATTE Web-DL 1080p Latino descargar gratis, descargar Invasión del Mundo: Batalla Los Ángeles (2011) OPEN MATTE Web-DL 1080p Latino pelicula latino, Invasión del Mundo: Batalla Los Ángeles (2011) OPEN MATTE Web-DL 1080p Latino 1 link mega, Invasión del Mundo: Batalla Los Ángeles (2011) OPEN MATTE Web-DL 1080p Latino 1 link google drive, Invasión del Mundo: Batalla Los Ángeles (2011) OPEN MATTE Web-DL 1080p Latino hd 1080p latino.
Comentarios 1
  • King Atlan - 27 agosto, 2020

    Se ve excelente en este formato, gracias por compartirla amigos
    es una joya de acción, no me aburre.