×

¿Problemas para descargar con Mozilla, EDGE? Deshabilita la opción "Abrir vinculos en una pestaña nueva" tal como lo muestra ésta imagen.

Invasión del Mundo: Batalla Los Ángeles (2011) 1080p Latino

421 vistas

Información de Invasión del Mundo: Batalla Los Ángeles (2011) 1080p Latino

Datos de la película

  • Calidad: 1080p
  • Audio: Español Latino AC3 5.1 BLURAY - Ingles AC3 5.1 BLURAY
  • Subtitulos: Español Latino SRT - Ingles SRT
  • Resolución: 1920x800p
  • Formato: MKV
  • Codec: H.264
  • Encoder: CinefiloCool
  • Mediainfo: Clic para Mostrar Datos Ver
  • Batalla Los Angeles (2011) 1080p Latino-CMHDD.mkv
    Format                      : Matroska
    Format version              : Version 4
    File size                   : 3.73 GiB
    Duration                    : 1 h 56 min
    Overall bit rate            : 4 584 kb/s
    Movie name                  : Battle - Los Angeles (2011) CinemaniaHDD.Net
    Encoded date                : UTC 2020-08-26 05:46:12
    Writing application         : mkvmerge v46.0.0 ('No Deeper Escape') 64-bit
    Writing library             : libebml v1.3.10 + libmatroska v1.5.2
    Attachments                 : CINEMANIAHD.png

    Video
    ID                          : 1
    Format                      : AVC
    Format/Info                 : Advanced Video Codec
    Format profile              : High@L4.1
    Format settings             : CABAC / 5 Ref Frames
    Format settings, CABAC      : Yes
    Format settings, Reference  : 5 frames
    Codec ID                    : V_MPEG4/ISO/AVC
    Duration                    : 1 h 56 min
    Bit rate                    : 3 500 kb/s
    Width                       : 1 920 pixels
    Height                      : 800 pixels
    Display aspect ratio        : 2.40:1
    Frame rate mode             : Constant
    Frame rate                  : 23.976 (24000/1001) FPS
    Color space                 : YUV
    Chroma subsampling          : 4:2:0
    Bit depth                   : 8 bits
    Scan type                   : Progressive
    Bits/(Pixel*Frame)          : 0.095
    Stream size                 : 2.84 GiB (76%)
    Title                       : HD1080p [CinemaniaHDD]
    Writing library             : x264 core 157 r2935 545de2f
    Encoding settings           : cabac=1 / ref=5 / deblock=1:-2:-2 / analyse=0x3:0x133 / me=umh / subme=9 / psy=1 / psy_rd=1.00:0.25 / mixed_ref=1 / me_range=16 / chroma_me=1 / trellis=2 / 8x8dct=1 / cqm=0 / deadzone=6,6 / fast_pskip=1 / chroma_qp_offset=-4 / threads=24 / lookahead_threads=2 / sliced_threads=0 / nr=0 / decimate=0 / interlaced=0 / bluray_compat=0 / constrained_intra=0 / bframes=3 / b_pyramid=2 / b_adapt=2 / b_bias=0 / direct=3 / weightb=1 / open_gop=0 / weightp=2 / keyint=240 / keyint_min=24 / scenecut=40 / intra_refresh=0 / rc_lookahead=60 / rc=2pass / mbtree=1 / bitrate=3500 / ratetol=1.0 / qcomp=0.80 / qpmin=0 / qpmax=69 / qpstep=4 / cplxblur=20.0 / qblur=0.5 / vbv_maxrate=62500 / vbv_bufsize=78125 / nal_hrd=none / filler=0 / ip_ratio=1.10 / aq=1:0.50
    Default                     : Yes
    Forced                      : Yes
    Color range                 : Limited
    Color primaries             : BT.709
    Transfer characteristics    : BT.709
    Matrix coefficients         : BT.709

    Audio #1
    ID                          : 2
    Format                      : AC-3
    Format/Info                 : Audio Coding 3
    Commercial name             : Dolby Digital
    Codec ID                    : A_AC3
    Duration                    : 1 h 56 min
    Bit rate mode               : Constant
    Bit rate                    : 640 kb/s
    Channel(s)                  : 6 channels
    Channel layout              : L R C LFE Ls Rs
    Sampling rate               : 48.0 kHz
    Frame rate                  : 31.250 FPS (1536 SPF)
    Compression mode            : Lossy
    Delay relative to video     : -5 ms
    Stream size                 : 533 MiB (14%)
    Title                       : Español Latino [CinemaniaHDD]
    Language                    : Spanish
    Service kind                : Complete Main
    Default                     : Yes
    Forced                      : Yes

    Audio #2
    ID                          : 3
    Format                      : AC-3
    Format/Info                 : Audio Coding 3
    Commercial name             : Dolby Digital
    Codec ID                    : A_AC3
    Duration                    : 1 h 56 min
    Bit rate mode               : Constant
    Bit rate                    : 448 kb/s
    Channel(s)                  : 6 channels
    Channel layout              : L R C LFE Ls Rs
    Sampling rate               : 48.0 kHz
    Frame rate                  : 31.250 FPS (1536 SPF)
    Compression mode            : Lossy
    Delay relative to video     : -5 ms
    Stream size                 : 372 MiB (10%)
    Title                       : Ingles [CinemaniaHDD]
    Language                    : English
    Service kind                : Complete Main
    Default                     : No
    Forced                      : No

    Text #1
    ID                          : 4
    Format                      : UTF-8
    Codec ID                    : S_TEXT/UTF8
    Codec ID/Info               : UTF-8 Plain Text
    Duration                    : 1 h 48 min
    Bit rate                    : 1 b/s
    Count of elements           : 31
    Stream size                 : 943 Bytes (0%)
    Title                       : Forzados-SRT [CinemaniaHDD]
    Language                    : Spanish
    Default                     : Yes
    Forced                      : Yes

    Text #2
    ID                          : 5
    Format                      : UTF-8
    Codec ID                    : S_TEXT/UTF8
    Codec ID/Info               : UTF-8 Plain Text
    Duration                    : 1 h 55 min
    Bit rate                    : 57 b/s
    Count of elements           : 1429
    Stream size                 : 48.5 KiB (0%)
    Title                       : Español-SRT [CinemaniaHDD]
    Language                    : Spanish
    Default                     : No
    Forced                      : No

    Text #3
    ID                          : 6
    Format                      : UTF-8
    Codec ID                    : S_TEXT/UTF8
    Codec ID/Info               : UTF-8 Plain Text
    Duration                    : 1 h 50 min
    Bit rate                    : 63 b/s
    Count of elements           : 1419
    Stream size                 : 51.7 KiB (0%)
    Title                       : Ingles-SRT [CinemaniaHDD]
    Language                    : English
    Default                     : No
    Forced                      : No

    Menu
    00:00:00.000                : :Chapter 1
    00:11:49.250                : :Chapter 2
    00:18:21.684                : :Chapter 3
    00:22:24.510                : :Chapter 4
    00:27:41.410                : :Chapter 5
    00:35:19.659                : :Chapter 6
    00:41:44.752                : :Chapter 7
    00:47:57.917                : :Chapter 8
    00:55:20.192                : :Chapter 9
    01:02:02.177                : :Chapter 10
    01:12:26.509                : :Chapter 11
    01:17:50.958                : :Chapter 12
    01:22:57.764                : :Chapter 13
    01:30:23.418                : :Chapter 14
    01:37:53.951                : :Chapter 15
    01:47:12.009                : :Chapter 16

  • Peso: 3.73 GiB

Sinopsis

Descargar Invasión del Mundo: Batalla Los Ángeles (2011) 1080p Latino. Durante años ha habido casos documentados de avistamientos de OVNIS en todo el mundo. Pero en 2011, lo que hasta ese momento eran simples avistamientos resulta una terrible realidad cuando la Tierra es atacada por fuerzas desconocidas. Mientras todos son testigos de cómo caen las grandes ciudades del mundo, Los Ángeles se convierte en el último bastión de la humanidad en una batalla que nadie esperaba. Un sargento de la Marina (Aaron Eckhart) y su división son los que tendrán que definir los límites frente a un enemigo como jamás se habían encontrado.

Ficha técnica

Video trailer de la película

Enlaces de descarga

Rip de Bluray

Descargar Invasión del Mundo: Batalla Los Ángeles (2011) 1080p Latino




Aportes de DPeliculasHDmega la pass es:dpeliculashdmega.org Aportes de CinemaniaHD la pass es:cinemaniahdd.com
Guardado en : Acción , Ciencia ficción , HD 1080p

Películas relacionadas

  • Emily la criminal (2022) HD 1080p Latino

    Emily la criminal (2022) HD 1080p Latino

    2022
    Emily la criminal (2022) HD 1080p Latino

    1h 37m 2022

    Descargar Emily la criminal (2022) HD 1080p Latino. Emily, que tiene una deuda estudiantil y está excluida...

    Director: John Patton Ford

    Género: Crimen

    Actores: Theo Rossi

  • Herencia peligrosa (2022) HD 1080p Latino

    Herencia peligrosa (2022) HD 1080p Latino

    2022
    Herencia peligrosa (2022) HD 1080p Latino

    1h 34m 2022

    Descargar Herencia peligrosa (2022) HD 1080p Latino. Tres ladrones se hacen con el yate de lujo de una...

    Director: Declan Whitebloom

    Género: Acción

    Actores: Vernon Davis

  • Herencia peligrosa (2022) REMUX 1080p Latino

    Herencia peligrosa (2022) REMUX 1080p Latino

    2022
    Herencia peligrosa (2022) REMUX 1080p Latino

    1h 34m 2022

    Descargar Herencia peligrosa (2022) REMUX 1080p Latino. Tres ladrones se hacen con el yate de lujo de...

    Director: Declan Whitebloom

    Género: Acción

    Actores: Vernon Davis

  • Território Hostil (2022) HD 1080p Latino

    Território Hostil (2022) HD 1080p Latino

    2022
    Território Hostil (2022) HD 1080p Latino

    1h 34m 2022

    Descargar Território Hostil (2022) HD 1080p Latino. En los Estados Unidos posteriores a la guerra civil,...

    Director: Brian Presley

    Género: Drama

    Actores: Natalie Whittle

descargar Invasión del Mundo: Batalla Los Ángeles (2011) 1080p Latino 1080p 1080p gratis, Invasión del Mundo: Batalla Los Ángeles (2011) 1080p Latino 1080p mega 1 link, Invasión del Mundo: Batalla Los Ángeles (2011) 1080p Latino 1080p pelicula completa, descargar Invasión del Mundo: Batalla Los Ángeles (2011) 1080p Latino 1080p gratis en mega.

Invasión del Mundo: Batalla Los Ángeles (2011) 1080p Latino pelicula full hd, Invasión del Mundo: Batalla Los Ángeles (2011) 1080p Latino mega latino, Invasión del Mundo: Batalla Los Ángeles (2011) 1080p Latino 4k latino, Invasión del Mundo: Batalla Los Ángeles (2011) 1080p Latino pelicula completa, Invasión del Mundo: Batalla Los Ángeles (2011) 1080p Latino descargar gratis, descargar Invasión del Mundo: Batalla Los Ángeles (2011) 1080p Latino pelicula latino, Invasión del Mundo: Batalla Los Ángeles (2011) 1080p Latino 1 link mega, Invasión del Mundo: Batalla Los Ángeles (2011) 1080p Latino 1 link google drive, Invasión del Mundo: Batalla Los Ángeles (2011) 1080p Latino hd 1080p latino.
Comentarios 0