×

¿Problemas para descargar con Mozilla, EDGE? Deshabilita la opción "Abrir vinculos en una pestaña nueva" tal como lo muestra ésta imagen.

Batman vs. Teenage Mutant Ninja Turtles (2019) REMUX 1080p Latino

641 vistas

Información de Batman vs. Teenage Mutant Ninja Turtles (2019) REMUX 1080p Latino

batman vs teenage mutant ninja turtles 53896 poster

Datos de la película

  • Calidad: Full 1080p
  • Audio: Español Latino AC3 5.1 BLURAY - Ingles DTS 5.1 BLURAY
  • Subtitulos: Español Latino PGS - Ingles PGS
  • Resolución: 1920x1080
  • Formato: MKV
  • Codec: H.264
  • Encoder: Chesse92
  • Mediainfo: Clic para Mostrar Datos Ver
  • Batman v. Teenage Mutant Ninja Turtles (2019) Remux 1080p Latino.mkv
    Format                      : Matroska
    Format version              : Version 4
    File size                   : 13.5 GiB
    Duration                    : 1 h 27 min
    Overall bit rate mode       : Variable
    Overall bit rate            : 22.3 Mb/s
    Movie name                  : CinemaniaHDD.net
    Encoded date                : UTC 2019-06-07 14:52:46
    Writing application         : mkvmerge v30.1.0 ('Forever And More') 64-bit
    Writing library             : libebml v1.3.6 + libmatroska v1.4.9

    Video
    ID                          : 1
    Format                      : AVC
    Format/Info                 : Advanced Video Codec
    Format profile              : High@L4.1
    Format settings             : CABAC / 4 Ref Frames
    Format settings, CABAC      : Yes
    Format settings, ReFrames   : 4 frames
    Codec ID                    : V_MPEG4/ISO/AVC
    Duration                    : 1 h 27 min
    Bit rate mode               : Variable
    Bit rate                    : 20.1 Mb/s
    Maximum bit rate            : 36.0 Mb/s
    Width                       : 1 920 pixels
    Height                      : 1 080 pixels
    Display aspect ratio        : 16:9
    Frame rate mode             : Constant
    Frame rate                  : 23.976 (24000/1001) FPS
    Color space                 : YUV
    Chroma subsampling          : 4:2:0
    Bit depth                   : 8 bits
    Scan type                   : Progressive
    Bits/(Pixel*Frame)          : 0.405
    Stream size                 : 12.2 GiB (90%)
    Language                    : English
    Default                     : No
    Forced                      : No

    Audio #1
    ID                          : 2
    Format                      : AC-3
    Format/Info                 : Audio Coding 3
    Commercial name             : Dolby Digital
    Codec ID                    : A_AC3
    Duration                    : 1 h 27 min
    Bit rate mode               : Constant
    Bit rate                    : 640 kb/s
    Channel(s)                  : 6 channels
    Channel layout              : L R C LFE Ls Rs
    Sampling rate               : 48.0 kHz
    Frame rate                  : 31.250 FPS (1536 SPF)
    Bit depth                   : 16 bits
    Compression mode            : Lossy
    Stream size                 : 398 MiB (3%)
    Language                    : Spanish
    Service kind                : Complete Main
    Default                     : No
    Forced                      : No

    Audio #2
    ID                          : 3
    Format                      : DTS
    Format/Info                 : Digital Theater Systems
    Codec ID                    : A_DTS
    Duration                    : 1 h 27 min
    Bit rate mode               : Constant
    Bit rate                    : 1 509 kb/s
    Channel(s)                  : 6 channels
    Channel layout              : C L R Ls Rs LFE
    Sampling rate               : 48.0 kHz
    Frame rate                  : 93.750 FPS (512 SPF)
    Bit depth                   : 16 bits
    Compression mode            : Lossy
    Stream size                 : 939 MiB (7%)
    Language                    : English
    Default                     : No
    Forced                      : No

    Text #1
    ID                          : 4
    Format                      : PGS
    Muxing mode                 : zlib
    Codec ID                    : S_HDMV/PGS
    Codec ID/Info               : Picture based subtitle format used on BDs/HD-DVDs
    Duration                    : 1 h 26 min
    Bit rate                    : 35.9 kb/s
    Count of elements           : 2582
    Stream size                 : 22.1 MiB (0%)
    Title                       : English-PGS
    Language                    : English
    Default                     : No
    Forced                      : No

    Text #2
    ID                          : 5
    Format                      : PGS
    Muxing mode                 : zlib
    Codec ID                    : S_HDMV/PGS
    Codec ID/Info               : Picture based subtitle format used on BDs/HD-DVDs
    Duration                    : 1 h 26 min
    Bit rate                    : 30.9 kb/s
    Count of elements           : 1986
    Stream size                 : 19.0 MiB (0%)
    Title                       : Spanish-PGS
    Language                    : Spanish
    Default                     : No
    Forced                      : No

    Text #3
    ID                          : 6
    Format                      : PGS
    Muxing mode                 : zlib
    Codec ID                    : S_HDMV/PGS
    Codec ID/Info               : Picture based subtitle format used on BDs/HD-DVDs
    Duration                    : 1 h 26 min
    Bit rate                    : 256 b/s
    Count of elements           : 22
    Stream size                 : 162 KiB (0%)
    Title                       : Spanish-FORCED-PGS
    Language                    : Spanish
    Default                     : No
    Forced                      : No

    Text #4
    ID                          : 7
    Format                      : UTF-8
    Codec ID                    : S_TEXT/UTF8
    Codec ID/Info               : UTF-8 Plain Text
    Duration                    : 58 min 34 s
    Bit rate                    : 0 b/s
    Count of elements           : 13
    Stream size                 : 255 Bytes (0%)
    Language                    : Spanish
    Default                     : Yes
    Forced                      : No

    Text #5
    ID                          : 8
    Format                      : UTF-8
    Codec ID                    : S_TEXT/UTF8
    Codec ID/Info               : UTF-8 Plain Text
    Duration                    : 1 h 22 min
    Bit rate                    : 52 b/s
    Count of elements           : 991
    Stream size                 : 31.5 KiB (0%)
    Language                    : Spanish
    Default                     : No
    Forced                      : No

    Menu
    00:00:00.000                : en:Chapter 01
    00:09:08.548                : en:Chapter 02
    00:21:14.856                : en:Chapter 03
    00:32:21.230                : en:Chapter 04
    00:41:15.055                : en:Chapter 05
    00:50:39.661                : en:Chapter 06
    01:00:42.096                : en:Chapter 07
    01:11:20.526                : en:Chapter 08
    01:23:55.572                : en:Chapter 09

  • Peso: 13.5 GiB

Sinopsis

Batman, Batgirl y Robin forjan una alianza con Las Tortugas Ninja para luchar contra el gran enemigo de estas últimas, Shredder, quien aparentemente ha formado equipo con Ra’s Al Ghul y la Liga de Asesinos para poner en jaque a Gotham.

Ficha técnica

Video trailer de la película

Enlaces de descarga

Rip de Bluray

Descargar Batman vs. Teenage Mutant Ninja Turtles (2019) REMUX 1080p Latino




Aportes de DPeliculasHDmega la pass es:dpeliculashdmega.org Aportes de CinemaniaHD la pass es:cinemaniahdd.com
Guardado en : Acción , Animación , Familia , Remux

Películas relacionadas

  • Un mundo extraño (2022) HD 1080p Latino

    Un mundo extraño (2022) HD 1080p Latino

    2022
    Un mundo extraño (2022) HD 1080p Latino

    1h 42m 2022

    Descargar Un mundo extraño (2022) HD 1080p Latino. Los Clades son una familia conocida en todo el mundo,...

    Director: Thai Bettistea

    Género: Animación

    Actores: Reed Buck

  • Un mundo extraño (2022) REMUX 1080p Latino

    Un mundo extraño (2022) REMUX 1080p Latino

    2022
    Un mundo extraño (2022) REMUX 1080p Latino

    1h 42m 2022

    Descargar Un mundo extraño (2022) REMUX 1080p. Un viaje a una tierra inexplorada y traicionera en la...

    Director: Thai Bettistea

    Género: Animación

    Actores: Reed Buck

  • Espiritu Libre (2023) NF WEB-DL 1080p Latino

    Espiritu Libre (2023) NF WEB-DL 1080p Latino

    2023
    Espiritu Libre (2023) NF WEB-DL 1080p Latino

    1h 49m 2023

    Descargar Espiritu Libre (2023) NF WEB-DL 1080p Latino. La película se basa en la increíble historia...

    Director: Sarah Spillane

    Género: Aventura

    Actores: Vivien Turner

descargar Batman vs. Teenage Mutant Ninja Turtles (2019) REMUX 1080p Latino Full 1080p 1080p gratis, Batman vs. Teenage Mutant Ninja Turtles (2019) REMUX 1080p Latino Full 1080p mega 1 link, Batman vs. Teenage Mutant Ninja Turtles (2019) REMUX 1080p Latino Full 1080p pelicula completa, descargar Batman vs. Teenage Mutant Ninja Turtles (2019) REMUX 1080p Latino Full 1080p gratis en mega.

Batman vs. Teenage Mutant Ninja Turtles (2019) REMUX 1080p Latino pelicula full hd, Batman vs. Teenage Mutant Ninja Turtles (2019) REMUX 1080p Latino mega latino, Batman vs. Teenage Mutant Ninja Turtles (2019) REMUX 1080p Latino 4k latino, Batman vs. Teenage Mutant Ninja Turtles (2019) REMUX 1080p Latino pelicula completa, Batman vs. Teenage Mutant Ninja Turtles (2019) REMUX 1080p Latino descargar gratis, descargar Batman vs. Teenage Mutant Ninja Turtles (2019) REMUX 1080p Latino pelicula latino, Batman vs. Teenage Mutant Ninja Turtles (2019) REMUX 1080p Latino 1 link mega, Batman vs. Teenage Mutant Ninja Turtles (2019) REMUX 1080p Latino 1 link google drive, Batman vs. Teenage Mutant Ninja Turtles (2019) REMUX 1080p Latino hd 1080p latino.
Comentarios 0