×

¿Problemas para descargar con Mozilla, EDGE? Deshabilita la opción "Abrir vinculos en una pestaña nueva" tal como lo muestra ésta imagen.

Batman vs. Teenage Mutant Ninja Turtles (2019) Full 1080p Latino

956 vistas

Información de Batman vs. Teenage Mutant Ninja Turtles (2019) Full 1080p Latino

batman vs teenage mutant ninja turtles 53894 poster

Datos de la película

  • Calidad: Full 1080p
  • Audio: Español Latino AC3 5.1 BLURAY - Ingles DTS 5.1 BLURAY
  • Subtitulos: Español Latino SRT- FORZADOS SRT
  • Resolución: 1920x1080
  • Formato: MKV
  • Codec: H.264
  • Encoder: Chesse92
  • Mediainfo: Clic para Mostrar Datos Ver
  • Batman vs Teenage Mutant Ninja Turtles (2019) Full BDRip 1080p Latino.mkv
    Format                      : Matroska
    Format version              : Version 4
    File size                   : 2.73 GiB
    Duration                    : 1 h 27 min
    Overall bit rate            : 4 495 kb/s
    Movie name                  : CinemaniaHDD.net
    Encoded date                : UTC 2019-06-07 14:55:30
    Writing application         : mkvmerge v30.1.0 ('Forever And More') 64-bit
    Writing library             : libebml v1.3.6 + libmatroska v1.4.9 / Lavf58.20.100

    Video
    ID                          : 1
    Format                      : AVC
    Format/Info                 : Advanced Video Codec
    Format profile              : High@L4.1
    Format settings             : CABAC / 4 Ref Frames
    Format settings, CABAC      : Yes
    Format settings, ReFrames   : 4 frames
    Codec ID                    : V_MPEG4/ISO/AVC
    Duration                    : 1 h 27 min
    Bit rate                    : 2 334 kb/s
    Width                       : 1 920 pixels
    Height                      : 1 080 pixels
    Display aspect ratio        : 16:9
    Frame rate mode             : Constant
    Frame rate                  : 23.976 (24000/1001) FPS
    Color space                 : YUV
    Chroma subsampling          : 4:2:0
    Bit depth                   : 8 bits
    Scan type                   : Progressive
    Bits/(Pixel*Frame)          : 0.047
    Stream size                 : 1.42 GiB (52%)
    Writing library             : x264 core 157 r2935 545de2f
    Encoding settings           : cabac=1 / ref=4 / deblock=1:0:0 / analyse=0x3:0x133 / me=tesa / subme=11 / psy=1 / psy_rd=1.00:0.00 / mixed_ref=1 / me_range=24 / chroma_me=1 / trellis=2 / 8x8dct=1 / cqm=0 / deadzone=21,11 / fast_pskip=0 / chroma_qp_offset=-2 / threads=34 / lookahead_threads=8 / sliced_threads=0 / nr=0 / decimate=1 / interlaced=0 / bluray_compat=0 / constrained_intra=0 / bframes=16 / b_pyramid=2 / b_adapt=2 / b_bias=0 / direct=3 / weightb=1 / open_gop=0 / weightp=2 / keyint=240 / keyint_min=24 / scenecut=40 / intra_refresh=0 / rc_lookahead=60 / rc=crf / mbtree=1 / crf=20.0 / qcomp=0.60 / qpmin=0 / qpmax=69 / qpstep=4 / vbv_maxrate=62500 / vbv_bufsize=78125 / crf_max=0.0 / nal_hrd=none / filler=0 / ip_ratio=1.40 / aq=1:1.00
    Default                     : Yes
    Forced                      : No
    Color range                 : Limited
    Color primaries             : BT.709
    Transfer characteristics    : BT.709
    Matrix coefficients         : BT.709

    Audio #1
    ID                          : 2
    Format                      : AC-3
    Format/Info                 : Audio Coding 3
    Commercial name             : Dolby Digital
    Codec ID                    : A_AC3
    Duration                    : 1 h 27 min
    Bit rate mode               : Constant
    Bit rate                    : 640 kb/s
    Channel(s)                  : 6 channels
    Channel layout              : L R C LFE Ls Rs
    Sampling rate               : 48.0 kHz
    Frame rate                  : 31.250 FPS (1536 SPF)
    Bit depth                   : 16 bits
    Compression mode            : Lossy
    Stream size                 : 398 MiB (14%)
    Title                       : Surround
    Language                    : Spanish
    Service kind                : Complete Main
    Default                     : Yes
    Forced                      : No

    Audio #2
    ID                          : 3
    Format                      : DTS
    Format/Info                 : Digital Theater Systems
    Codec ID                    : A_DTS
    Duration                    : 1 h 27 min
    Bit rate mode               : Constant
    Bit rate                    : 1 509 kb/s
    Channel(s)                  : 6 channels
    Channel layout              : C L R Ls Rs LFE
    Sampling rate               : 48.0 kHz
    Frame rate                  : 93.750 FPS (512 SPF)
    Bit depth                   : 16 bits
    Compression mode            : Lossy
    Stream size                 : 939 MiB (34%)
    Title                       : Surround
    Language                    : English
    Default                     : No
    Forced                      : No

    Text #1
    ID                          : 4
    Format                      : PGS
    Muxing mode                 : zlib
    Codec ID                    : S_HDMV/PGS
    Codec ID/Info               : Picture based subtitle format used on BDs/HD-DVDs
    Duration                    : 1 h 26 min
    Bit rate                    : 30.9 kb/s
    Count of elements           : 1986
    Stream size                 : 19.0 MiB (1%)
    Language                    : Spanish
    Default                     : No
    Forced                      : No

    Text #2
    ID                          : 5
    Format                      : PGS
    Muxing mode                 : zlib
    Codec ID                    : S_HDMV/PGS
    Codec ID/Info               : Picture based subtitle format used on BDs/HD-DVDs
    Duration                    : 1 h 26 min
    Bit rate                    : 256 b/s
    Count of elements           : 22
    Stream size                 : 162 KiB (0%)
    Language                    : Spanish
    Default                     : No
    Forced                      : No

    Text #3
    ID                          : 6
    Format                      : ASS
    Codec ID                    : S_TEXT/ASS
    Codec ID/Info               : Advanced Sub Station Alpha
    Duration                    : 1 h 22 min
    Bit rate                    : 85 b/s
    Count of elements           : 1022
    Compression mode            : Lossless
    Stream size                 : 51.7 KiB (0%)
    Language                    : English
    Default                     : No
    Forced                      : No

    Text #4
    ID                          : 7
    Format                      : UTF-8
    Codec ID                    : S_TEXT/UTF8
    Codec ID/Info               : UTF-8 Plain Text
    Duration                    : 58 min 34 s
    Bit rate                    : 0 b/s
    Count of elements           : 13
    Stream size                 : 255 Bytes (0%)
    Language                    : Spanish
    Default                     : Yes
    Forced                      : No

    Text #5
    ID                          : 8
    Format                      : UTF-8
    Codec ID                    : S_TEXT/UTF8
    Codec ID/Info               : UTF-8 Plain Text
    Duration                    : 1 h 22 min
    Bit rate                    : 52 b/s
    Count of elements           : 991
    Stream size                 : 31.5 KiB (0%)
    Language                    : Spanish
    Default                     : No
    Forced                      : No

    Menu
    00:00:00.000                : :Chapter 1
    00:09:08.548                : :Chapter 2
    00:21:14.857                : :Chapter 3
    00:32:21.231                : :Chapter 4
    00:41:15.056                : :Chapter 5
    00:50:39.662                : :Chapter 6
    01:00:42.097                : :Chapter 7
    01:11:20.610                : :Chapter 8
    01:23:55.656                : :Chapter 9

  • Peso: 2.73 GiB

Sinopsis

Batman, Batgirl y Robin forjan una alianza con Las Tortugas Ninja para luchar contra el gran enemigo de estas últimas, Shredder, quien aparentemente ha formado equipo con Ra’s Al Ghul y la Liga de Asesinos para poner en jaque a Gotham.

Ficha técnica

Video trailer de la película

Enlaces de descarga

Rip de Bluray

Descargar Batman vs. Teenage Mutant Ninja Turtles (2019) Full 1080p Latino




Aportes de DPeliculasHDmega la pass es:dpeliculashdmega.org Aportes de CinemaniaHD la pass es:cinemaniahdd.com

Películas relacionadas

  • Un mundo extraño (2022) HD 1080p Latino

    Un mundo extraño (2022) HD 1080p Latino

    2022
    Un mundo extraño (2022) HD 1080p Latino

    1h 42m 2022

    Descargar Un mundo extraño (2022) HD 1080p Latino. Los Clades son una familia conocida en todo el mundo,...

    Director: Thai Bettistea

    Género: Animación

    Actores: Reed Buck

  • Un mundo extraño (2022) REMUX 1080p Latino

    Un mundo extraño (2022) REMUX 1080p Latino

    2022
    Un mundo extraño (2022) REMUX 1080p Latino

    1h 42m 2022

    Descargar Un mundo extraño (2022) REMUX 1080p. Un viaje a una tierra inexplorada y traicionera en la...

    Director: Thai Bettistea

    Género: Animación

    Actores: Reed Buck

  • Espiritu Libre (2023) NF WEB-DL 1080p Latino

    Espiritu Libre (2023) NF WEB-DL 1080p Latino

    2023
    Espiritu Libre (2023) NF WEB-DL 1080p Latino

    1h 49m 2023

    Descargar Espiritu Libre (2023) NF WEB-DL 1080p Latino. La película se basa en la increíble historia...

    Director: Sarah Spillane

    Género: Aventura

    Actores: Vivien Turner

descargar Batman vs. Teenage Mutant Ninja Turtles (2019) Full 1080p Latino Full 1080p 1080p gratis, Batman vs. Teenage Mutant Ninja Turtles (2019) Full 1080p Latino Full 1080p mega 1 link, Batman vs. Teenage Mutant Ninja Turtles (2019) Full 1080p Latino Full 1080p pelicula completa, descargar Batman vs. Teenage Mutant Ninja Turtles (2019) Full 1080p Latino Full 1080p gratis en mega.

Batman vs. Teenage Mutant Ninja Turtles (2019) Full 1080p Latino pelicula full hd, Batman vs. Teenage Mutant Ninja Turtles (2019) Full 1080p Latino mega latino, Batman vs. Teenage Mutant Ninja Turtles (2019) Full 1080p Latino 4k latino, Batman vs. Teenage Mutant Ninja Turtles (2019) Full 1080p Latino pelicula completa, Batman vs. Teenage Mutant Ninja Turtles (2019) Full 1080p Latino descargar gratis, descargar Batman vs. Teenage Mutant Ninja Turtles (2019) Full 1080p Latino pelicula latino, Batman vs. Teenage Mutant Ninja Turtles (2019) Full 1080p Latino 1 link mega, Batman vs. Teenage Mutant Ninja Turtles (2019) Full 1080p Latino 1 link google drive, Batman vs. Teenage Mutant Ninja Turtles (2019) Full 1080p Latino hd 1080p latino.
Comentarios 0